Скачать через торрент музыку Спартак: Кровь и Песок Spartacus: Blood And Sand бесплатно без регистрации torrent

Если у вас наблюдаются проблемы со скриншотами, переходом по ссылками, скачиванием торрентов - проблемы в блокировщике рекламы AdBlock. #хорошегоДня!


Статистика раздачи
Размер:  369 MB   |    Зарегистрирован:  6 лет 2 месяца   |    .torrent скачан:  55 раз   |   
Раздают:  1  
   
Загрузка...
 
Автор Сообщение

Galfimbul

avatar Galfimbul


Спартак: Кровь и Песок / Spartacus: Blood And Sand

Жанр: Score
страна производителя: США
Композитор: Joseph LoDuca
Год выпуска диска / фильма: 2010
Издатель (лейбл): Varese Sarabande
Номер по каталогу: 302 067 045 2

Аудио кодек: FLAC (*.flac)
Тип рипа: tracks+.cue
Битрейт аудио: lossless
Продолжительность: 74:30

Источник: CD
сайт-источник/ник/другое: what.cd (nazgul68)
Наличие сканов в содержимом раздачи: да

01. Six Against One (3:13)
02. Leaving Sura (1:09)
03. Off To War (0:25)
04. Thracians Brave (1:22)
05. Sura Ambushed (1:39)
06. Village Burned (1:09)
07. No Life Without You (2:12)
08. Sura Abducted (1:20)
09. Orgy (1:09)
10. Cena Libera (2:21)
11. Thumbs Up (1:58)
12. Tuck & Roll (2:09)
13. Training (1:18)
14. Ludus Envy (2:40)
15. Rematch (2:02)
16. Dominus (1:22)
17. In The Arena (1:25)
18. We Are Gladiators (1:12)
19. Barca's Legend (0:51)
20. Transporting Spartacus (0:50)
21. Losing Mind (0:54)
22. Dottore's Legend (1:07)
23. Theocoles (1:17)
24. Rain At Last (1:42)
25. Arse A Bit (1:35)
26. Going Off (2:08)
27. Barca Betrayed (1:37)
28. Reunion Immenent / Tragic Reunion (5:29)
29. I Am Spartacus (1:57)
30. Batti On A Roll (1:16)
31. Statue (1:00)
32. Demonstration (1:07)
33. Always A Choice (2:39)
34. Different Sword (2:35)
35. Proving Legend (2:29)
36. No More Mr Nice Guy (3:36)
37. Pale Shadow of Love (1:26)
38. Crixus Fading (1:51)
39. Crixus Revenge (1:31)
40. Batti's End (2:08)
41. Blood Demands Blood (1:37)
42. Spartacus End Titles (1:44)
 
Exact Audio Copy V0.99 prebeta 5 from 4. May 2009

EAC extraction logfile from 15. October 2010, 16:44

Joseph LoDuca / Spartacus: Blood and Sand

Used drive : Optiarc DVD RW AD-7241S Adapter: 1 ID: 1

Read mode : SecureUtilize accurate stream : YesDefeat audio cache : YesMake use of C2 pointers : No

Read offset correction : 48Overread into Lead-In and Lead-Out : NoFill up missing offset samples with silence : YesDelete leading and trailing silent blocks : NoNull samples used in CRC calculations : YesUsed interface : Native Win32 interface for Win NT & 2000Gap handling : Appended to previous track

Used output format : User Defined EncoderSelected bitrate : 128 kBit/sQuality : HighAdd ID3 tag : NoCommand line compressor : C:\Program Files (x86)\Exact Audio Copy\Flac\flac.exeAdditional command line options : -8 -V -T "artist=%a" -T "title=%t" -T "album=%g" -T "date=%y" -T "tracknumber=%n" -T "genre=%m" %s

TOC of the extracted CD

Track | Start | Length | Start sector | End sector --------------------------------------------------------- 1 | 0:00.00 | 3:12.49 | 0 | 14448 2 | 3:12.49 | 1:08.72 | 14449 | 19620 3 | 4:21.46 | 0:25.23 | 19621 | 21518 4 | 4:46.69 | 1:21.45 | 21519 | 27638 5 | 6:08.39 | 1:39.12 | 27639 | 35075 6 | 7:47.51 | 1:09.11 | 35076 | 40261 7 | 8:56.62 | 2:12.32 | 40262 | 50193 8 | 11:09.19 | 1:19.55 | 50194 | 56173 9 | 12:28.74 | 1:08.66 | 56174 | 61339 10 | 13:37.65 | 2:20.57 | 61340 | 71896 11 | 15:58.47 | 1:58.20 | 71897 | 80766 12 | 17:56.67 | 2:08.48 | 80767 | 90414 13 | 20:05.40 | 1:18.00 | 90415 | 96264 14 | 21:23.40 | 2:39.70 | 96265 | 108259 15 | 24:03.35 | 2:02.31 | 108260 | 117440 16 | 26:05.66 | 1:22.17 | 117441 | 123607 17 | 27:28.08 | 1:25.05 | 123608 | 129987 18 | 28:53.13 | 1:12.14 | 129988 | 135401 19 | 30:05.27 | 0:51.23 | 135402 | 139249 20 | 30:56.50 | 0:49.49 | 139250 | 142973 21 | 31:46.24 | 0:54.28 | 142974 | 147051 22 | 32:40.52 | 1:07.01 | 147052 | 152077 23 | 33:47.53 | 1:16.53 | 152078 | 157830 24 | 35:04.31 | 1:42.06 | 157831 | 165486 25 | 36:46.37 | 1:34.42 | 165487 | 172578 26 | 38:21.04 | 2:08.27 | 172579 | 182205 27 | 40:29.31 | 1:36.66 | 182206 | 189471 28 | 42:06.22 | 5:28.69 | 189472 | 214140 29 | 47:35.16 | 1:56.41 | 214141 | 222881 30 | 49:31.57 | 1:15.41 | 222882 | 228547 31 | 50:47.23 | 1:00.02 | 228548 | 233049 32 | 51:47.25 | 1:07.02 | 233050 | 238076 33 | 52:54.27 | 2:39.16 | 238077 | 250017 34 | 55:33.43 | 2:35.29 | 250018 | 261671 35 | 58:08.72 | 2:29.07 | 261672 | 272853 36 | 60:38.04 | 3:35.70 | 272854 | 289048 37 | 64:13.74 | 1:25.47 | 289049 | 295470 38 | 65:39.46 | 1:50.43 | 295471 | 303763 39 | 67:30.14 | 1:31.18 | 303764 | 310606 40 | 69:01.32 | 2:07.40 | 310607 | 320171 41 | 71:08.72 | 1:36.55 | 320172 | 327426 42 | 72:45.52 | 1:44.11 | 327427 | 335237

Track 1

Filename C:\Users\chris\Desktop\Rips\01 - Six Against One.wav

Pre-gap length 0:00:02.00

Peak level 99.7 % Track quality 100.0 % Test CRC FD7DCB5B Copy CRC FD7DCB5B Track not present in AccurateRip database Copy OK

Track 2

Filename C:\Users\chris\Desktop\Rips\02 - Leaving Sura.wav

Peak level 99.7 % Track quality 100.0 % Test CRC EDF17A22 Copy CRC EDF17A22 Track not present in AccurateRip database Copy OK

Track 3

Filename C:\Users\chris\Desktop\Rips\03 - Off To War.wav

Peak level 99.7 % Track quality 100.0 % Test CRC 11AE1A06 Copy CRC 11AE1A06 Track not present in AccurateRip database Copy OK

Track 4

Filename C:\Users\chris\Desktop\Rips\04 - Thracians Brave.wav

Peak level 99.7 % Track quality 100.0 % Test CRC 9534B242 Copy CRC 9534B242 Track not present in AccurateRip database Copy OK

Track 5

Filename C:\Users\chris\Desktop\Rips\05 - Sura Ambushed.wav

Peak level 99.7 % Track quality 100.0 % Test CRC A15F851C Copy CRC A15F851C Track not present in AccurateRip database Copy OK

Track 6

Filename C:\Users\chris\Desktop\Rips\06 - Village Burned.wav

Peak level 48.5 % Track quality 100.0 % Test CRC 7BD02422 Copy CRC 7BD02422 Track not present in AccurateRip database Copy OK

Track 7

Filename C:\Users\chris\Desktop\Rips\07 - No Life Without You.wav

Peak level 51.7 % Track quality 100.0 % Test CRC 4A3FCA9A Copy CRC 4A3FCA9A Track not present in AccurateRip database Copy OK

Track 8

Filename C:\Users\chris\Desktop\Rips\08 - Sura Abducted.wav

Peak level 99.8 % Track quality 100.0 % Test CRC E311FEC4 Copy CRC E311FEC4 Track not present in AccurateRip database Copy OK

Track 9

Filename C:\Users\chris\Desktop\Rips\09 - Orgy.wav

Peak level 99.7 % Track quality 100.0 % Test CRC A72347E2 Copy CRC A72347E2 Track not present in AccurateRip database Copy OK

Track 10

Filename C:\Users\chris\Desktop\Rips\10 - Cena Libera.wav

Peak level 99.7 % Track quality 99.9 % Test CRC B8E4F4A4 Copy CRC B8E4F4A4 Track not present in AccurateRip database Copy OK

Track 11

Filename C:\Users\chris\Desktop\Rips\11 - Thumbs Up.wav

Peak level 99.7 % Track quality 100.0 % Test CRC C3D57B2B Copy CRC C3D57B2B Track not present in AccurateRip database Copy OK

Track 12

Filename C:\Users\chris\Desktop\Rips\12 - Tuck & Roll.wav

Peak level 99.7 % Track quality 100.0 % Test CRC CC518A64 Copy CRC CC518A64 Track not present in AccurateRip database Copy OK

Track 13

Filename C:\Users\chris\Desktop\Rips\13 - Training.wav

Peak level 99.7 % Track quality 99.8 % Test CRC E7F37EAB Copy CRC E7F37EAB Track not present in AccurateRip database Copy OK

Track 14

Filename C:\Users\chris\Desktop\Rips\14 - Ludus Envy.wav

Peak level 78.3 % Track quality 100.0 % Test CRC 7B21573D Copy CRC 7B21573D Track not present in AccurateRip database Copy OK

Track 15

Filename C:\Users\chris\Desktop\Rips\15 - Rematch.wav

Peak level 99.7 % Track quality 100.0 % Test CRC 8164116F Copy CRC 8164116F Track not present in AccurateRip database Copy OK

Track 16

Filename C:\Users\chris\Desktop\Rips\16 - Dominus.wav

Peak level 99.7 % Track quality 100.0 % Test CRC 533D1ECD Copy CRC 533D1ECD Track not present in AccurateRip database Copy OK

Track 17

Filename C:\Users\chris\Desktop\Rips\17 - In The Arena.wav

Peak level 99.7 % Track quality 100.0 % Test CRC 655C2193 Copy CRC 655C2193 Track not present in AccurateRip database Copy OK

Track 18

Filename C:\Users\chris\Desktop\Rips\18 - We Are Gladiators.wav

Peak level 99.7 % Track quality 100.0 % Test CRC 4A7FDB0B Copy CRC 4A7FDB0B Track not present in AccurateRip database Copy OK

Track 19

Filename C:\Users\chris\Desktop\Rips\19 - Barca's Legend.wav

Peak level 99.7 % Track quality 100.0 % Test CRC 1163B686 Copy CRC 1163B686 Track not present in AccurateRip database Copy OK

Track 20

Filename C:\Users\chris\Desktop\Rips\20 - Transporting Spartacus.wav

Peak level 99.7 % Track quality 100.0 % Test CRC 8E639899 Copy CRC 8E639899 Track not present in AccurateRip database Copy OK

Track 21

Filename C:\Users\chris\Desktop\Rips\21 - Losing Mind.wav

Peak level 99.7 % Track quality 100.0 % Test CRC C2FE02D3 Copy CRC C2FE02D3 Track not present in AccurateRip database Copy OK

Track 22

Filename C:\Users\chris\Desktop\Rips\22 - Dottore's Legend.wav

Peak level 99.7 % Track quality 100.0 % Test CRC 2D39ED2C Copy CRC 2D39ED2C Track not present in AccurateRip database Copy OK

Track 23

Filename C:\Users\chris\Desktop\Rips\23 - Theocoles.wav

Peak level 99.7 % Track quality 99.8 % Test CRC ED3D5FD4 Copy CRC ED3D5FD4 Track not present in AccurateRip database Copy OK

Track 24

Filename C:\Users\chris\Desktop\Rips\24 - Rain At Last.wav

Peak level 99.7 % Track quality 100.0 % Test CRC 269A01D1 Copy CRC 269A01D1 Track not present in AccurateRip database Copy OK

Track 25

Filename C:\Users\chris\Desktop\Rips\25 - Arse A Bit.wav

Peak level 97.9 % Track quality 100.0 % Test CRC 2075F50E Copy CRC 2075F50E Track not present in AccurateRip database Copy OK

Track 26

Filename C:\Users\chris\Desktop\Rips\26 - Going Off.wav

Peak level 99.7 % Track quality 100.0 % Test CRC 427EFFBC Copy CRC 427EFFBC Track not present in AccurateRip database Copy OK

Track 27

Filename C:\Users\chris\Desktop\Rips\27 - Barca Betrayed.wav

Peak level 52.7 % Track quality 100.0 % Test CRC 80B563B1 Copy CRC 80B563B1 Track not present in AccurateRip database Copy OK

Track 28

Filename C:\Users\chris\Desktop\Rips\28 - Reunion Immenent , Tragic Reunion.wav

Peak level 99.7 % Track quality 100.0 % Test CRC 30118449 Copy CRC 30118449 Track not present in AccurateRip database Copy OK

Track 29

Filename C:\Users\chris\Desktop\Rips\29 - I Am Spartacus.wav

Peak level 99.7 % Track quality 99.9 % Test CRC 8FBFF664 Copy CRC 8FBFF664 Track not present in AccurateRip database Copy OK

Track 30

Filename C:\Users\chris\Desktop\Rips\30 - Batti On A Roll.wav

Peak level 96.6 % Track quality 100.0 % Test CRC 4E160564 Copy CRC 4E160564 Track not present in AccurateRip database Copy OK

Track 31

Filename C:\Users\chris\Desktop\Rips\31 - Statue.wav

Peak level 98.7 % Track quality 100.0 % Test CRC 756573B3 Copy CRC 756573B3 Track not present in AccurateRip database Copy OK

Track 32

Filename C:\Users\chris\Desktop\Rips\32 - Demonstration.wav

Peak level 99.7 % Track quality 100.0 % Test CRC 8C7689C0 Copy CRC 8C7689C0 Track not present in AccurateRip database Copy OK

Track 33

Filename C:\Users\chris\Desktop\Rips\33 - Always A Choice.wav

Peak level 99.7 % Track quality 100.0 % Test CRC 829F8D74 Copy CRC 829F8D74 Track not present in AccurateRip database Copy OK

Track 34

Filename C:\Users\chris\Desktop\Rips\34 - Different Sword.wav

Peak level 99.7 % Track quality 99.9 % Test CRC 1DCF9A47 Copy CRC 1DCF9A47 Track not present in AccurateRip database Copy OK

Track 35

Filename C:\Users\chris\Desktop\Rips\35 - Proving Legend.wav

Peak level 99.7 % Track quality 99.9 % Test CRC 42DF95EF Copy CRC 42DF95EF Track not present in AccurateRip database Copy OK

Track 36

Filename C:\Users\chris\Desktop\Rips\36 - No More Mr Nice Guy.wav

Peak level 99.7 % Track quality 100.0 % Test CRC B42FD17D Copy CRC B42FD17D Track not present in AccurateRip database Copy OK

Track 37

Filename C:\Users\chris\Desktop\Rips\37 - Pale Shadow of Love.wav

Peak level 99.7 % Track quality 100.0 % Test CRC 4D500C8A Copy CRC 4D500C8A Track not present in AccurateRip database Copy OK

Track 38

Filename C:\Users\chris\Desktop\Rips\38 - Crixus Fading.wav

Peak level 99.7 % Track quality 99.9 % Test CRC EF06BBEF Copy CRC EF06BBEF Track not present in AccurateRip database Copy OK

Track 39

Filename C:\Users\chris\Desktop\Rips\39 - Crixus Revenge.wav

Peak level 99.7 % Track quality 100.0 % Test CRC F17A8209 Copy CRC F17A8209 Track not present in AccurateRip database Copy OK

Track 40

Filename C:\Users\chris\Desktop\Rips\40 - Batti's End.wav

Peak level 99.7 % Track quality 100.0 % Test CRC 9393A21F Copy CRC 9393A21F Track not present in AccurateRip database Copy OK

Track 41

Filename C:\Users\chris\Desktop\Rips\41 - Blood Demands Blood.wav

Peak level 99.7 % Track quality 100.0 % Test CRC 7119B76A Copy CRC 7119B76A Track not present in AccurateRip database Copy OK

Track 42

Filename C:\Users\chris\Desktop\Rips\42 - Spartacus End Titles.wav

Peak level 99.7 % Track quality 100.0 % Test CRC 710DB18B Copy CRC 710DB18B Track not present in AccurateRip database Copy OK

None of the tracks are present in the AccurateRip database

No errors occurred

End of status report
 
REM DATE 2010REM DISCID 6F11752AREM COMMENT "ExactAudioCopy v0.99pb5"PERFORMER "Joseph LoDuca"TITLE "Spartacus: Blood and Sand"FILE "01 - Six Against One.wav" WAVE TRACK 01 AUDIO TITLE "Six Against One" PERFORMER "Joseph LoDuca" INDEX 01 00:00:00FILE "02 - Leaving Sura.wav" WAVE TRACK 02 AUDIO TITLE "Leaving Sura" PERFORMER "Joseph LoDuca" INDEX 01 00:00:00FILE "03 - Off To War.wav" WAVE TRACK 03 AUDIO TITLE "Off To War" PERFORMER "Joseph LoDuca" INDEX 01 00:00:00FILE "04 - Thracians Brave.wav" WAVE TRACK 04 AUDIO TITLE "Thracians Brave" PERFORMER "Joseph LoDuca" INDEX 01 00:00:00FILE "05 - Sura Ambushed.wav" WAVE TRACK 05 AUDIO TITLE "Sura Ambushed" PERFORMER "Joseph LoDuca" INDEX 01 00:00:00FILE "06 - Village Burned.wav" WAVE TRACK 06 AUDIO TITLE "Village Burned" PERFORMER "Joseph LoDuca" INDEX 01 00:00:00FILE "07 - No Life Without You.wav" WAVE TRACK 07 AUDIO TITLE "No Life Without You" PERFORMER "Joseph LoDuca" INDEX 01 00:00:00FILE "08 - Sura Abducted.wav" WAVE TRACK 08 AUDIO TITLE "Sura Abducted" PERFORMER "Joseph LoDuca" INDEX 01 00:00:00FILE "09 - Orgy.wav" WAVE TRACK 09 AUDIO TITLE "Orgy" PERFORMER "Joseph LoDuca" INDEX 01 00:00:00FILE "10 - Cena Libera.wav" WAVE TRACK 10 AUDIO TITLE "Cena Libera" PERFORMER "Joseph LoDuca" INDEX 01 00:00:00FILE "11 - Thumbs Up.wav" WAVE TRACK 11 AUDIO TITLE "Thumbs Up" PERFORMER "Joseph LoDuca" INDEX 01 00:00:00FILE "12 - Tuck & Roll.wav" WAVE TRACK 12 AUDIO TITLE "Tuck & Roll" PERFORMER "Joseph LoDuca" INDEX 01 00:00:00FILE "13 - Training.wav" WAVE TRACK 13 AUDIO TITLE "Training" PERFORMER "Joseph LoDuca" INDEX 01 00:00:00FILE "14 - Ludus Envy.wav" WAVE TRACK 14 AUDIO TITLE "Ludus Envy" PERFORMER "Joseph LoDuca" INDEX 01 00:00:00FILE "15 - Rematch.wav" WAVE TRACK 15 AUDIO TITLE "Rematch" PERFORMER "Joseph LoDuca" INDEX 01 00:00:00FILE "16 - Dominus.wav" WAVE TRACK 16 AUDIO TITLE "Dominus" PERFORMER "Joseph LoDuca" INDEX 01 00:00:00FILE "17 - In The Arena.wav" WAVE TRACK 17 AUDIO TITLE "In The Arena" PERFORMER "Joseph LoDuca" INDEX 01 00:00:00FILE "18 - We Are Gladiators.wav" WAVE TRACK 18 AUDIO TITLE "We Are Gladiators" PERFORMER "Joseph LoDuca" INDEX 01 00:00:00FILE "19 - Barca's Legend.wav" WAVE TRACK 19 AUDIO TITLE "Barca's Legend" PERFORMER "Joseph LoDuca" INDEX 01 00:00:00FILE "20 - Transporting Spartacus.wav" WAVE TRACK 20 AUDIO TITLE "Transporting Spartacus" PERFORMER "Joseph LoDuca" INDEX 01 00:00:00FILE "21 - Losing Mind.wav" WAVE TRACK 21 AUDIO TITLE "Losing Mind" PERFORMER "Joseph LoDuca" INDEX 01 00:00:00FILE "22 - Dottore's Legend.wav" WAVE TRACK 22 AUDIO TITLE "Dottore's Legend" PERFORMER "Joseph LoDuca" INDEX 01 00:00:00FILE "23 - Theocoles.wav" WAVE TRACK 23 AUDIO TITLE "Theocoles" PERFORMER "Joseph LoDuca" INDEX 01 00:00:00FILE "24 - Rain At Last.wav" WAVE TRACK 24 AUDIO TITLE "Rain At Last" PERFORMER "Joseph LoDuca" INDEX 01 00:00:00FILE "25 - Arse A Bit.wav" WAVE TRACK 25 AUDIO TITLE "Arse A Bit" PERFORMER "Joseph LoDuca" INDEX 01 00:00:00FILE "26 - Going Off.wav" WAVE TRACK 26 AUDIO TITLE "Going Off" PERFORMER "Joseph LoDuca" INDEX 01 00:00:00FILE "27 - Barca Betrayed.wav" WAVE TRACK 27 AUDIO TITLE "Barca Betrayed" PERFORMER "Joseph LoDuca" INDEX 01 00:00:00FILE "28 - Reunion Immenent , Tragic Reunion.wav" WAVE TRACK 28 AUDIO TITLE "Reunion Immenent / Tragic Reunion" PERFORMER "Joseph LoDuca" INDEX 01 00:00:00FILE "29 - I Am Spartacus.wav" WAVE TRACK 29 AUDIO TITLE "I Am Spartacus" PERFORMER "Joseph LoDuca" INDEX 01 00:00:00FILE "30 - Batti On A Roll.wav" WAVE TRACK 30 AUDIO TITLE "Batti On A Roll" PERFORMER "Joseph LoDuca" INDEX 01 00:00:00FILE "31 - Statue.wav" WAVE TRACK 31 AUDIO TITLE "Statue" PERFORMER "Joseph LoDuca" INDEX 01 00:00:00FILE "32 - Demonstration.wav" WAVE TRACK 32 AUDIO TITLE "Demonstration" PERFORMER "Joseph LoDuca" INDEX 01 00:00:00FILE "33 - Always A Choice.wav" WAVE TRACK 33 AUDIO TITLE "Always A Choice" PERFORMER "Joseph LoDuca" INDEX 01 00:00:00FILE "34 - Different Sword.wav" WAVE TRACK 34 AUDIO TITLE "Different Sword" PERFORMER "Joseph LoDuca" INDEX 01 00:00:00FILE "35 - Proving Legend.wav" WAVE TRACK 35 AUDIO TITLE "Proving Legend" PERFORMER "Joseph LoDuca" INDEX 01 00:00:00FILE "36 - No More Mr Nice Guy.wav" WAVE TRACK 36 AUDIO TITLE "No More Mr Nice Guy" PERFORMER "Joseph LoDuca" INDEX 01 00:00:00FILE "37 - Pale Shadow of Love.wav" WAVE TRACK 37 AUDIO TITLE "Pale Shadow of Love" PERFORMER "Joseph LoDuca" INDEX 01 00:00:00FILE "38 - Crixus Fading.wav" WAVE TRACK 38 AUDIO TITLE "Crixus Fading" PERFORMER "Joseph LoDuca" INDEX 01 00:00:00FILE "39 - Crixus Revenge.wav" WAVE TRACK 39 AUDIO TITLE "Crixus Revenge" PERFORMER "Joseph LoDuca" INDEX 01 00:00:00FILE "40 - Batti's End.wav" WAVE TRACK 40 AUDIO TITLE "Batti's End" PERFORMER "Joseph LoDuca" INDEX 01 00:00:00FILE "41 - Blood Demands Blood.wav" WAVE TRACK 41 AUDIO TITLE "Blood Demands Blood" PERFORMER "Joseph LoDuca" INDEX 01 00:00:00FILE "42 - Spartacus End Titles.wav" WAVE TRACK 42 AUDIO TITLE "Spartacus End Titles" PERFORMER "Joseph LoDuca" INDEX 01 00:00:00


Трекер:  [ 08-Июл-2011 13:33 ]

  

Скачать .torrent

Размер .torrent файла 17 KB


Размер: 369 MB
Хэш (hash) релиза: ca4798665e92a33f1cb9956d66bf5499db42f3b9

Торренты, похожие на Спартак: Кровь и Песок Spartacus: Blood And Sand скачать торрент

Форум Название Автор Размер S L Добавлен
Саундтреки к фильмам и мультфильмам (mp3) ·· (Score) Спартак: Кровь и Песок / Spartacus: Blood And Sand (by Joseph LoDuca) - 2010, MP3 (tracks), 320 kbps Солнышко 200180947191 MB 0 0 1292265711

21:41

13-Дек-10

Саундтреки к фильмам и мультфильмам (mp3) ·· (Score) Спартак: Кровь и Песок (Война проклятых) / Spartacus: Blood And Sand (War Of The Damned) (by Joseph LoDuca) - 2013, MP3, 320 kbps Galfimbul 184396238176 MB 0 0 1369235244

18:07

22-Май-13

Саундтреки к фильмам и мультфильмам (lossless) ·· (Score) Спартак: Кровь и Песок (Война проклятых) / Spartacus: Blood And Sand (War Of The Damned) (by Joseph LoDuca) - 2013, FLAC (tracks+.cue), lossless Galfimbul 398670447380 MB 0 0 1369235032

18:03

22-Май-13

Саундтреки ·· (Score) Спартак: Кровь и Песок (Месть) / Spartacus: Blood And Sand (Vengeance) (by Joseph LoDuca) - 2012, FLAC (tracks+.cue), lossless Galfimbul 699611766667 MB 0 0 1337193780

21:43

16-Май-12

Саундтреки ·· (Score) Спартак: Кровь и Песок (Месть) / Spartacus: Blood And Sand (Vengeance) (by Joseph LoDuca) [2CD] - 2012, MP3 (tracks), 320 kbps Umakiro 343019833327 MB 0 0 1337006160

17:36

14-Май-12

Еще никто не оставлял запись к записи скачать торрент Спартак: Кровь и Песок Spartacus: Blood And Sand . Будь первым!

!Обратная связь