Скачать через торрент музыку Блэйд Троица Blade Trinity бесплатно без регистрации torrent

Если у вас наблюдаются проблемы со скриншотами, переходом по ссылками, скачиванием торрентов - проблемы в блокировщике рекламы AdBlock. #хорошегоДня!


Статистика раздачи
Размер:  320 MB   |    Зарегистрирован:  6 лет 2 месяца   |    .torrent скачан:  53 раза   |   
Раздают:  1  
   
Загрузка...
 
Автор Сообщение

Galfimbul

avatar Galfimbul


Блэйд Троица / Blade Trinity

Жанр: Soundtrack
Год выпуска диска: 2004
Производитель диска: USA
Аудио кодек: FLAC
Тип рипа: tracks+.cue
Битрейт аудио: lossless
Продолжительность: 00:49:55

01 - The RZA - Fatal (03:44)
02 - Lil' Flip featuring Ghostface Killah & Raekwon of Wutang Clan - I Gotta Get Paid (03:49)
03 - WC, E-40 & Christ Bearer of Northstar - When The Guns Come Out (04:09)
04 - Old Dirty Bastard AKA Dirt McGirt & Black Keith - Thirsty (04:04)
05 - Ramin Djawadi & The RZA - Day walkers (02:35)
06 - Kool Keith presents Thee Undatakerz - Party In The Morgue (Club Mix) (06:57)
07 - Overseer - Skylight (05:00)
08 - Black Lab - This Blood (03:06)
09 - Paris Texas - Bombs Away (Danny Saber Remix) (03:28)
10 - The Crystal Method - Weapons Of Mad Distortion (04:51)
11 - Manchild - Hard Wax (04:09)
12 - Ramin Djawadi - Blade's Back (04:04)

Источник: lztr.us
 
Exact Audio Copy V0.99 prebeta 4 from 23. January 2008

EAC extraction logfile from 20. April 2009, 13:09

Various Artists / Blade Trinity Soundtrack

Used drive : ATAPI iHAS120 6 Adapter: 5 ID: 1

Read mode : SecureUtilize accurate stream : YesDefeat audio cache : YesMake use of C2 pointers : No

Read offset correction : 6Overread into Lead-In and Lead-Out : NoFill up missing offset samples with silence : YesDelete leading and trailing silent blocks : NoNull samples used in CRC calculations : YesUsed interface : Installed external ASPI interfaceGap handling : Appended to previous track

Used output format : User Defined EncoderSelected bitrate : 128 kBit/sQuality : HighAdd ID3 tag : NoCommand line compressor : D:\Program Files\Exact Audio Copy\Flac\flac.exeAdditional command line options : -V -8 -T "artist=%a" -T "title=%t" -T "album=%g" -T "date=%y" -T "tracknumber=%n" -T "genre=%m" %s

TOC of the extracted CD

Track | Start | Length | Start sector | End sector --------------------------------------------------------- 1 | 0:00.00 | 3:43.59 | 0 | 16783 2 | 3:43.59 | 3:49.01 | 16784 | 33959 3 | 7:32.60 | 4:09.20 | 33960 | 52654 4 | 11:42.05 | 4:04.23 | 52655 | 70977 5 | 15:46.28 | 2:34.46 | 70978 | 82573 6 | 18:20.74 | 6:56.69 | 82574 | 113842 7 | 25:17.68 | 4:59.71 | 113843 | 136338 8 | 30:17.64 | 3:06.24 | 136339 | 150312 9 | 33:24.13 | 3:28.03 | 150313 | 165915 10 | 36:52.16 | 4:50.55 | 165916 | 187720 11 | 41:42.71 | 4:08.63 | 187721 | 206383 12 | 45:51.59 | 4:03.58 | 206384 | 224666

Track 1

Filename C:\EACrips\Blade Trinity Soundtrack - 2004\01 - The RZA - Fatal.wav

Pre-gap length 0:00:02.00

Peak level 80.3 % Track quality 99.9 % Test CRC 99FEB6DA Copy CRC 99FEB6DA Track not present in AccurateRip database Copy OK

Track 2

Filename C:\EACrips\Blade Trinity Soundtrack - 2004\02 - Lil' Flip featuring Ghostface Killah & Raekwon of Wutang Clan - I Gotta Get Paid.wav

Pre-gap length 0:00:01.22

Peak level 92.0 % Track quality 100.0 % Test CRC 5DE8A230 Copy CRC 5DE8A230 Track not present in AccurateRip database Copy OK

Track 3

Filename C:\EACrips\Blade Trinity Soundtrack - 2004\03 - WC, E-40 & Christ Bearer of Northstar - When The Guns Come Out.wav

Pre-gap length 0:00:00.34

Peak level 91.1 % Track quality 100.0 % Test CRC 6C8E834F Copy CRC 6C8E834F Track not present in AccurateRip database Copy OK

Track 4

Filename C:\EACrips\Blade Trinity Soundtrack - 2004\04 - Old Dirty Bastard AKA Dirt McGirt & Black Keith - Thirsty.wav

Peak level 94.0 % Track quality 100.0 % Test CRC DFFE7B95 Copy CRC DFFE7B95 Track not present in AccurateRip database Copy OK

Track 5

Filename C:\EACrips\Blade Trinity Soundtrack - 2004\05 - Ramin Djawadi & The RZA - Day walkers.wav

Pre-gap length 0:00:00.13

Peak level 87.4 % Track quality 100.0 % Test CRC 4D0C3166 Copy CRC 4D0C3166 Track not present in AccurateRip database Copy OK

Track 6

Filename C:\EACrips\Blade Trinity Soundtrack - 2004\06 - Kool Keith presents Thee Undatakerz - Party In The Morgue (Club Mix).wav

Peak level 84.5 % Track quality 100.0 % Test CRC 59775F97 Copy CRC 59775F97 Track not present in AccurateRip database Copy OK

Track 7

Filename C:\EACrips\Blade Trinity Soundtrack - 2004\07 - Overseer - Skylight.wav

Peak level 86.8 % Track quality 100.0 % Test CRC 1533770A Copy CRC 1533770A Track not present in AccurateRip database Copy OK

Track 8

Filename C:\EACrips\Blade Trinity Soundtrack - 2004\08 - Black Lab - This Blood.wav

Peak level 89.7 % Track quality 100.0 % Test CRC 09CF5CF6 Copy CRC 09CF5CF6 Track not present in AccurateRip database Copy OK

Track 9

Filename C:\EACrips\Blade Trinity Soundtrack - 2004\09 - Paris Texas - Bombs Away (Danny Saber Remix).wav

Peak level 87.2 % Track quality 100.0 % Test CRC 936B17D4 Copy CRC 936B17D4 Track not present in AccurateRip database Copy OK

Track 10

Filename C:\EACrips\Blade Trinity Soundtrack - 2004\10 - The Crystal Method - Weapons Of Mad Distortion.wav

Peak level 92.7 % Track quality 100.0 % Test CRC 62A88C8F Copy CRC 62A88C8F Track not present in AccurateRip database Copy OK

Track 11

Filename C:\EACrips\Blade Trinity Soundtrack - 2004\11 - Manchild - Hard Wax.wav

Peak level 90.2 % Track quality 100.0 % Test CRC DAF676A5 Copy CRC DAF676A5 Track not present in AccurateRip database Copy OK

Track 12

Filename C:\EACrips\Blade Trinity Soundtrack - 2004\12 - Ramin Djawadi - Blade's Back.wav

Peak level 90.1 % Track quality 99.9 % Test CRC 3D6CD633 Copy CRC 3D6CD633 Track not present in AccurateRip database Copy OK

None of the tracks are present in the AccurateRip database

No errors occurred

End of status report
 
REM GENRE ElectronicREM DATE 2004REM DISCID 8C0BB30CREM COMMENT "ExactAudioCopy v0.99pb4"CATALOG 0794043903823FILE "01 - The RZA - Fatal.wav" WAVE TRACK 01 AUDIO ISRC H2FLF0400068 INDEX 01 00:00:00 TRACK 02 AUDIO ISRC H2FLF0400069 INDEX 00 03:42:42FILE "02 - Lil' Flip featuring Ghostface Killah & Raekwon of Wutang Clan - I Gotta Get Paid.wav" WAVE INDEX 01 00:00:00 TRACK 03 AUDIO ISRC H2FLF0400070 INDEX 00 03:48:50FILE "03 - WC, E-40 & Christ Bearer of Northstar - When The Guns Come Out.wav" WAVE INDEX 01 00:00:00FILE "04 - Old Dirty Bastard AKA Dirt McGirt & Black Keith - Thirsty.wav" WAVE TRACK 04 AUDIO ISRC H2FLF0400071 INDEX 01 00:00:00 TRACK 05 AUDIO ISRC H2FLF0400072 INDEX 00 04:04:13FILE "05 - Ramin Djawadi & The RZA - Day walkers.wav" WAVE INDEX 01 00:00:00FILE "06 - Kool Keith presents Thee Undatakerz - Party In The Morgue (Club Mix).wav" WAVE TRACK 06 AUDIO INDEX 01 00:00:00FILE "07 - Overseer - Skylight.wav" WAVE TRACK 07 AUDIO INDEX 01 00:00:00FILE "08 - Black Lab - This Blood.wav" WAVE TRACK 08 AUDIO INDEX 01 00:00:00FILE "09 - Paris Texas - Bombs Away (Danny Saber Remix).wav" WAVE TRACK 09 AUDIO ISRC H2FLF0400073 INDEX 01 00:00:00FILE "10 - The Crystal Method - Weapons Of Mad Distortion.wav" WAVE TRACK 10 AUDIO INDEX 01 00:00:00FILE "11 - Manchild - Hard Wax.wav" WAVE TRACK 11 AUDIO INDEX 01 00:00:00FILE "12 - Ramin Djawadi - Blade's Back.wav" WAVE TRACK 12 AUDIO ISRC H2FLF0400074 INDEX 01 00:00:00



Трекер:  [ 08-Июл-2011 13:33 ]

  

Скачать .torrent

Размер .torrent файла 14 KB


Размер: 320 MB
Хэш (hash) релиза: ab2bbe71803d27795d5fec14026aae87155199c5

Еще никто не оставлял запись к записи скачать торрент Блэйд Троица Blade Trinity . Будь первым!

!Обратная связь