Скачать через торрент музыку Le Passager De La Plui бесплатно без регистрации torrent

Если у вас наблюдаются проблемы со скриншотами, переходом по ссылками, скачиванием торрентов - проблемы в блокировщике рекламы AdBlock. #хорошегоДня!


Статистика раздачи
Размер:  207 MB   |    Зарегистрирован:  6 лет 5 месяцев   |    .torrent скачан:  39 раз   |   
Раздают:  1  
   
Загрузка...
 
Автор Сообщение

Galfimbul

avatar Galfimbul


Le Passager De La Pluie(Rider On The Rain)/Пассажир дождя

Страна: Франция, Италия
Жанр: OST
Год выпуска: 1969
Формат: FLAC (tracks)
Продолжительность: 00:38:01
Трэклист:
01. Francis Lai - Le Passager De La Pluie (3:44) Performed by Severine
02. Francis Lai - Dobb's Dualite (1:55)
03. Francis Lai - La Valse Du Mariage (2:05)
04. Francis Lai - Theme De L'Americain (0:58)
05. Francis Lai - Dualite (3:24)
06. Francis Lai - Theme Dobbs (0:57)
07. Francis Lai - Mellie Et L'Americain (1:46)
08. Francis Lai - L'Arrestation (1:39)
09. Francis Lai - La Maison Du Rendez-Vous (2:25)
10. Francis Lai - Generique (2:52)
11. Francis Lai - Theme Des Voitures (1:17)
12. Francis Lai - Theme Mellie (4:32)
13. Francis Lai - Theme Bestial (1:10)
14. Francis Lai - Slow Du Marriage (2:13)
15. Francis Lai - Souvenier De Melancholie (0:45)
16. Francis Lai - Angoisse (0:49)
17. Francis Lai - Dobbs A La Gare (1:03)
18. Francis Lai - Le Viol (2:15)
19. Francis Lai - Dualite Et Dobbs (0:59)
20. Francis Lai - Theme Mellie (1:05)
Exact Audio Copy V0.99 prebeta 4 from 23. January 2008

EAC extraction logfile from 30. May 2008, 21:01

Francis Lai / Le Passager De La Pluie

Used drive : HL-DT-STDVDRAM GSA-H42L Adapter: 0 ID: 0

Read mode : Secure
Utilize accurate stream : Yes
Defeat audio cache : Yes
Make use of C2 pointers : No

Combined read/write offset correction : 0
Overread into Lead-In and Lead-Out : No
Fill up missing offset samples with silence : Yes
Delete leading and trailing silent blocks : No
Null samples used in CRC calculations : Yes
Used interface : Native Win32 interface for Win NT & 2000
Gap handling : Appended to previous track

Used output format : User Defined Encoder
Selected bitrate : 768 kBit/s
Quality : High
Add ID3 tag : No
Command line compressor : C:\Program Files\Exact Audio Copy\FLAC\FLAC.EXE
Additional command line options : -V -8 -T "artist=%a" -T "title=%t" -T "album=%g" -T "date=%y" -T "tracknumber=%n" -T "genre=%m" %s

TOC of the extracted CD

Track | Start | Length | Start sector | End sector
---------------------------------------------------------
1 | 0:00.00 | 3:44.12 | 0 | 16811
2 | 3:44.12 | 1:55.13 | 16812 | 25449
3 | 5:39.25 | 2:05.52 | 25450 | 34876
4 | 7:45.02 | 0:58.25 | 34877 | 39251
5 | 8:43.27 | 3:23.73 | 39252 | 54549
6 | 12:07.25 | 0:57.38 | 54550 | 58862
7 | 13:04.63 | 1:46.60 | 58863 | 66872
8 | 14:51.48 | 1:39.45 | 66873 | 74342
9 | 16:31.18 | 2:25.38 | 74343 | 85255
10 | 18:56.56 | 2:52.65 | 85256 | 98220
11 | 21:49.46 | 1:17.52 | 98221 | 104047
12 | 23:07.23 | 4:32.03 | 104048 | 124450
13 | 27:39.26 | 1:10.47 | 124451 | 129747
14 | 28:49.73 | 2:13.21 | 129748 | 139743
15 | 31:03.19 | 0:45.14 | 139744 | 143132
16 | 31:48.33 | 0:49.61 | 143133 | 146868
17 | 32:38.19 | 1:03.50 | 146869 | 151643
18 | 33:41.69 | 2:15.11 | 151644 | 161779
19 | 35:57.05 | 0:59.25 | 161780 | 166229
20 | 36:56.30 | 1:05.31 | 166230 | 171135

Track 1

Filename C:\EAC Rips\Francis Lai - Le Passager De La Pluie - 1969\01 - Le Passager De La Pluie.wav

Pre-gap length 0:00:02.00

Peak level 100.0 %
Track quality 99.9 %
Test CRC 44BACD3A
Copy CRC 44BACD3A
Copy OK

Track 2

Filename C:\EAC Rips\Francis Lai - Le Passager De La Pluie - 1969\02 - Dobb's Dualite.wav

Pre-gap length 0:00:01.74

Peak level 100.0 %
Track quality 100.0 %
Test CRC 9D0F8D0F
Copy CRC 9D0F8D0F
Copy OK

Track 3

Filename C:\EAC Rips\Francis Lai - Le Passager De La Pluie - 1969\03 - La Valse Du Mariage.wav

Pre-gap length 0:00:01.96

Peak level 100.0 %
Track quality 100.0 %
Test CRC 9F1F5103
Copy CRC 9F1F5103
Copy OK

Track 4

Filename C:\EAC Rips\Francis Lai - Le Passager De La Pluie - 1969\04 - Theme De L'Americain.wav

Pre-gap length 0:00:01.96

Peak level 100.0 %
Track quality 100.0 %
Test CRC 3B6A9832
Copy CRC 3B6A9832
Copy OK

Track 5

Filename C:\EAC Rips\Francis Lai - Le Passager De La Pluie - 1969\05 - Dualite.wav

Pre-gap length 0:00:01.89

Peak level 100.0 %
Track quality 100.0 %
Test CRC E979D829
Copy CRC E979D829
Copy OK

Track 6

Filename C:\EAC Rips\Francis Lai - Le Passager De La Pluie - 1969\06 - Theme Dobbs.wav

Pre-gap length 0:00:01.84

Peak level 100.0 %
Track quality 100.0 %
Test CRC 8B9D9320
Copy CRC 8B9D9320
Copy OK

Track 7

Filename C:\EAC Rips\Francis Lai - Le Passager De La Pluie - 1969\07 - Mellie Et L'Americain.wav

Pre-gap length 0:00:01.89

Peak level 100.0 %
Track quality 100.0 %
Test CRC 5B44A850
Copy CRC 5B44A850
Copy OK

Track 8

Filename C:\EAC Rips\Francis Lai - Le Passager De La Pluie - 1969\08 - L'Arrestation.wav

Pre-gap length 0:00:01.98

Peak level 100.0 %
Track quality 99.8 %
Test CRC BF19B21A
Copy CRC BF19B21A
Copy OK

Track 9

Filename C:\EAC Rips\Francis Lai - Le Passager De La Pluie - 1969\09 - La Maison Du Rendez-Vous.wav

Pre-gap length 0:00:01.90

Peak level 100.0 %
Track quality 100.0 %
Test CRC 2465968D
Copy CRC 2465968D
Copy OK

Track 10

Filename C:\EAC Rips\Francis Lai - Le Passager De La Pluie - 1969\10 - Generique.wav

Pre-gap length 0:00:01.98

Peak level 100.0 %
Track quality 100.0 %
Test CRC 71F939D4
Copy CRC 71F939D4
Copy OK

Track 11

Filename C:\EAC Rips\Francis Lai - Le Passager De La Pluie - 1969\11 - Theme Des Voitures.wav

Pre-gap length 0:00:01.93

Peak level 100.0 %
Track quality 99.8 %
Test CRC B5A028F6
Copy CRC B5A028F6
Copy OK

Track 12

Filename C:\EAC Rips\Francis Lai - Le Passager De La Pluie - 1969\12 - Theme Mellie.wav

Pre-gap length 0:00:01.89

Peak level 100.0 %
Track quality 100.0 %
Test CRC CC5C9901
Copy CRC CC5C9901
Copy OK

Track 13

Filename C:\EAC Rips\Francis Lai - Le Passager De La Pluie - 1969\13 - Theme Bestial.wav

Pre-gap length 0:00:01.94

Peak level 100.0 %
Track quality 100.0 %
Test CRC 99191CBD
Copy CRC 99191CBD
Copy OK

Track 14

Filename C:\EAC Rips\Francis Lai - Le Passager De La Pluie - 1969\14 - Slow Du Marriage.wav

Pre-gap length 0:00:01.85

Peak level 100.0 %
Track quality 100.0 %
Test CRC 70C61649
Copy CRC 70C61649
Copy OK

Track 15

Filename C:\EAC Rips\Francis Lai - Le Passager De La Pluie - 1969\15 - Souvenier De Melancholie.wav

Pre-gap length 0:00:01.77

Peak level 100.0 %
Track quality 99.7 %
Test CRC 79655235
Copy CRC 79655235
Copy OK

Track 16

Filename C:\EAC Rips\Francis Lai - Le Passager De La Pluie - 1969\16 - Angoisse.wav

Pre-gap length 0:00:01.92

Peak level 100.0 %
Track quality 99.7 %
Test CRC AC89BE6F
Copy CRC AC89BE6F
Copy OK

Track 17

Filename C:\EAC Rips\Francis Lai - Le Passager De La Pluie - 1969\17 - Dobbs A La Gare.wav

Pre-gap length 0:00:01.92

Peak level 100.0 %
Track quality 100.0 %
Test CRC 767FEE7D
Copy CRC 767FEE7D
Copy OK

Track 18

Filename C:\EAC Rips\Francis Lai - Le Passager De La Pluie - 1969\18 - Le Viol.wav

Pre-gap length 0:00:01.97

Peak level 100.0 %
Track quality 99.9 %
Test CRC B47229EF
Copy CRC B47229EF
Copy OK

Track 19

Filename C:\EAC Rips\Francis Lai - Le Passager De La Pluie - 1969\19 - Dualite Et Dobbs.wav

Pre-gap length 0:00:01.78

Peak level 90.7 %
Track quality 100.0 %
Test CRC B6CB930D
Copy CRC B6CB930D
Copy OK

Track 20

Filename C:\EAC Rips\Francis Lai - Le Passager De La Pluie - 1969\20 - Theme Mellie.wav

Pre-gap length 0:00:01.94

Peak level 100.0 %
Track quality 99.8 %
Test CRC 03DB8486
Copy CRC 03DB8486
Copy OK

No errors occurred

End of status report


Трекер:  [ 08-Июл-2011 13:18 ]

  

Скачать .torrent

Размер .torrent файла 18 KB


Размер: 207 MB
Хэш (hash) релиза: 713a9b8d7073b0c58edfca9e0ad7e44bcac0f201

Еще никто не оставлял запись к записи скачать торрент Le Passager De La Plui . Будь первым!

!Обратная связь