Скачать через торрент музыку The Godfather II Крестный отец II бесплатно без регистрации torrent

Если у вас наблюдаются проблемы со скриншотами, переходом по ссылками, скачиванием торрентов - проблемы в блокировщике рекламы AdBlock. #хорошегоДня!


Статистика раздачи
Размер:  202 MB   |    Зарегистрирован:  6 лет 2 месяца   |    .torrent скачан:  33 раза   |   
Раздают:  1  
   
Загрузка...
 
Автор Сообщение

Galfimbul

avatar Galfimbul


The Godfather II / Крестный отец II (Nino Rota, Carmine Coppola)

Жанр: Score
Год выпуска диска: 1995
Производитель диска: Russia / Россия
Аудио кодек: APE
Тип рипа: image+.cue
Битрейт аудио: lossless
Продолжительность: 38:36
1. Main Title/The Immigrant* (3:28)
2. A New Carpet* (2:00)
3. Kay* (3:00)
4. Every Time I Look In Your Eyes**/After the Party* (2:35)
5. Vito and Abbandando* (2:38)
6. Senza Mama. Ciuri-Ciuri/Napule Ve Salute (2:36)
7. The Godfathers at Home* (2:35)
8. Remember Vito Andolini* (2:52)
9. Michael Comes Home* (2:19)
10. Marcia Stilo Italiano** (2:02)
11. Ninna Nanna A Michele (2:22)
12. The Brouthers Mourn* (3:21)
13. Murder of Don Fanucci** (2:50)
14. End Title* (3:52)

* Composed by Nino Rota
** Composed by Carmine Coppola
Conducted by Carmine Coppola
Exact Audio Copy V0.99 prebeta 5 from 4. May 2009

Отчёт EAC об извлечении, выполненном 9. августа 2009, 12:07

The Godfather Part II / The Godfather Part II

Дисковод: Optiarc DVD RW AD-5200A Adapter: 0 ID: 0

Режим чтения : Достоверность
Использование точного потока : Да
Отключение кэша аудио : Да
Использование указателей C2 : Нет

Коррекция смещения при чтении : 48
Способность читать области Lead-in и Lead-out : Нет
Заполнение пропущенных сэмплов тишиной : Да
Удаление блоков с тишиной в начале и конце : Нет
При вычислениях CRC использовались нулевые сэмплы : Да
Интерфейс : Установленный внешний ASPI-интерфейс

Выходной формат : Внутренние WAV-операции
Формат сэмплов : 44.100 Гц; 16 бит; стерео

TOC извлечённого CD

Трек | Старт | Длительность | Начальный сектор | Конечный сектор
---------------------------------------------------------------------
1 | 0:00.00 | 3:28.05 | 0 | 15604
2 | 3:28.05 | 2:00.55 | 15605 | 24659
3 | 5:28.60 | 3:00.30 | 24660 | 38189
4 | 8:29.15 | 2:35.45 | 38190 | 49859
5 | 11:04.60 | 2:38.40 | 49860 | 61749
6 | 13:43.25 | 2:36.48 | 61750 | 73497
7 | 16:19.73 | 2:35.60 | 73498 | 85182
8 | 18:55.58 | 2:52.15 | 85183 | 98097
9 | 21:47.73 | 2:19.20 | 98098 | 108542
10 | 24:07.18 | 2:02.27 | 108543 | 117719
11 | 26:09.45 | 2:22.65 | 117720 | 128434
12 | 28:32.35 | 3:21.28 | 128435 | 143537
13 | 31:53.63 | 2:50.50 | 143538 | 156337
14 | 34:44.38 | 3:52.00 | 156338 | 173737

Характеристики диапазона извлечения и сообщения об ошибках

Выбранный диапазон

Имя файла D:\08 - OST\The Godfather II\The Godfarther II\The Godfather Part II - The Godfather Part II.wav

Пиковый уровень 100.0 %
Качество диапазона 100.0 %
CRC копии CC2575EF
Копирование... OK

Ошибок не произошло

Конец отчёта
К раздаче приложены сканы буклета.


Трекер:  [ 08-Июл-2011 13:02 ]

  

Скачать .torrent

Размер .torrent файла 16 KB


Размер: 202 MB
Хэш (hash) релиза: e56482dd21bd5aace86ee075745d1fa27d65ee51

Еще никто не оставлял запись к записи скачать торрент The Godfather II Крестный отец II . Будь первым!

!Обратная связь