Скачать через торрент музыку Point Break На гребне волны - 1991, FLAC бесплатно без регистрации torrent

Если у вас наблюдаются проблемы со скриншотами, переходом по ссылками, скачиванием торрентов - проблемы в блокировщике рекламы AdBlock. #хорошегоДня!


Статистика раздачи
Размер:  317 MB   |    Зарегистрирован:  6 лет 2 месяца   |    .torrent скачан:  47 раз   |   
Раздают:  1  
   
Загрузка...
 
Автор Сообщение

Galfimbul

avatar Galfimbul


Point Break / На гребне волны

Жанр: Soundtrack
Год выпуска диска: 1991
Аудио кодек: FLAC
Тип рипа: image+.cue
Битрейт аудио: lossless
Продолжительность: 00:44:32
Трэклист:
1. Nobody Rides For Free - Ratt
2. Over The Edge - L.A. Guns
3. I Will Not Fall - Wire Train
4. I Want You - Concrete Blonde
5. 7 And 7 Is - Liquid Jesus
6. Smoke On The Water - Loudhouse
7. My City - Shark Island
8. Criminal - Public Image Ltd.
9. So Long Cowboy - Westworld
10. Hundreds Of Tears - Sheryl Crow
Exact Audio Copy V0.99 prebeta 5 from 4. May 2009

EAC extraction logfile from 2. August 2009, 15:45

Various / Point Break

Used drive : Optiarc DVD RW AD-7190A Adapter: 1 ID: 0

Read mode : Secure
Utilize accurate stream : Yes
Defeat audio cache : Yes
Make use of C2 pointers : No

Read offset correction : 6
Overread into Lead-In and Lead-Out : No
Fill up missing offset samples with silence : Yes
Delete leading and trailing silent blocks : No
Null samples used in CRC calculations : Yes
Used interface : Installed external ASPI interface

Used output format : User Defined Encoder
Selected bitrate : 768 kBit/s
Quality : High
Add ID3 tag : No
Command line compressor : C:\Program Files\Exact Audio Copy\FLAC\FLAC.EXE
Additional command line options : -8 -V %s

TOC of the extracted CD

Track | Start | Length | Start sector | End sector
---------------------------------------------------------
1 | 0:00.00 | 4:42.60 | 0 | 21209
2 | 4:42.60 | 5:36.32 | 21210 | 46441
3 | 10:19.17 | 4:49.58 | 46442 | 68174
4 | 15:09.00 | 3:28.17 | 68175 | 83791
5 | 18:37.17 | 3:19.48 | 83792 | 98764
6 | 21:56.65 | 3:58.72 | 98765 | 116686
7 | 25:55.62 | 3:45.00 | 116687 | 133561
8 | 29:40.62 | 4:29.70 | 133562 | 153806
9 | 34:10.57 | 3:33.73 | 153807 | 169854
10 | 37:44.55 | 6:47.27 | 169855 | 200406

Range status and errors

Selected range

Filename C:\Documents and Settings\Admin\Мои документы\РАЗДАЧИ НА ТОРРЕНТЕ НЕ УДАЛЯТЬ\Point Break lossless\Various - Point Break.wav

Peak level 95.5 %
Range quality 99.9 %
Test CRC 917F109F
Copy CRC 917F109F
Copy OK

No errors occurred

AccurateRip summary

Track 1 accurately ripped (confidence 6) [EB0C90A2]
Track 2 accurately ripped (confidence 5) [DDBEA441]
Track 3 accurately ripped (confidence 5) [D757265B]
Track 4 accurately ripped (confidence 5) [A46D687E]
Track 5 accurately ripped (confidence 5) [51183367]
Track 6 accurately ripped (confidence 5) [89581B94]
Track 7 accurately ripped (confidence 5) [3D1784D3]
Track 8 accurately ripped (confidence 5) [75315318]
Track 9 accurately ripped (confidence 5) [D5FFAC9D]
Track 10 accurately ripped (confidence 5) [AA665A34]

All tracks accurately ripped

End of status report


Трекер:  [ 08-Июл-2011 13:02 ]

  

Скачать .torrent

Размер .torrent файла 13 KB


Размер: 317 MB
Хэш (hash) релиза: 564bb9b9a90d3c6a33cf55f4dc684ed87f43b652

Еще никто не оставлял запись к записи скачать торрент Point Break На гребне волны - 1991, FLAC . Будь первым!

!Обратная связь