Скачать через торрент музыку Mick Jagger & Dave Stewart - Alfie Красавчик Альфи - 2004, APE бесплатно без регистрации torrent

Если у вас наблюдаются проблемы со скриншотами, переходом по ссылками, скачиванием торрентов - проблемы в блокировщике рекламы AdBlock. #хорошегоДня!


Статистика раздачи
Размер:  308 MB   |    Зарегистрирован:  6 лет 5 месяцев   |    .torrent скачан:  46 раз   |   
Раздают:  1  
   
Загрузка...
 
Автор Сообщение

Galfimbul

avatar Galfimbul


Mick Jagger & Dave Stewart - Alfie

Жанр: Soundtrack/ Rock / Soul
Год выпуска диска: 2004
Производитель диска: Virgin - Emi - E.U.
Аудио кодек: APE
Тип рипа: image+.cue
Битрейт аудио: lossless
Продолжительность: 50:33

Трэклист:
1. Old habits die hard - M. Jagger & D. Stewart
2. Blind leading the blind (live accoustic version) - M. Jagger & D. Stewart
3. New york Hustle - M. Jagger & D. Stewart
4. Let's make it up - M. Jagger & D. Stewart
5. Wicked time - Joss Stone & Nadirah Seid, vocals by M. Jagger
6. Lonely without you (this christmas) - M. Jagger & Joss Stone
7. Darkness of your love - Gary Mudbone Cooper & D. Stewart
8. Jack the lad - M. Jagger & D. Stewart
9. Oh Nikki - M. Jagger & D. Stewart
10. Blind leading the blind - M. Jagger & D. Stewart
11. Standing in the rain - M. Jagger & D. Stewart
12. Counting the days - M. Jagger & D. Stewart
13. Old habits reprise - M. Jagger & D. Stewart
14. Alfie - Joss Stone

Доп. информация:
 
Exact Audio Copy V0.99 prebeta 4 from 23. January 2008

EAC extraction logfile from 19. July 2009, 19:55

Mick Jagger & Dave Stewart / Alfie [OST]

Used drive : ASUS DRW-2014S1 Adapter: 1 ID: 0

Read mode : SecureUtilize accurate stream : YesDefeat audio cache : YesMake use of C2 pointers : No

Read offset correction : 6Overread into Lead-In and Lead-Out : NoFill up missing offset samples with silence : YesDelete leading and trailing silent blocks : NoNull samples used in CRC calculations : YesUsed interface : Native Win32 interface for Win NT & 2000

Used output format : Internal WAV RoutinesSample format : 44.100 Hz; 16 Bit; Stereo

TOC of the extracted CD

Track | Start | Length | Start sector | End sector --------------------------------------------------------- 1 | 0:00.00 | 4:27.47 | 0 | 20071 2 | 4:27.47 | 5:57.33 | 20072 | 46879 3 | 10:25.05 | 2:43.67 | 46880 | 59171 4 | 13:08.72 | 4:28.55 | 59172 | 79326 5 | 17:37.52 | 4:18.50 | 79327 | 98726 6 | 21:56.27 | 2:37.40 | 98727 | 110541 7 | 24:33.67 | 3:41.30 | 110542 | 127146 8 | 28:15.22 | 3:17.60 | 127147 | 141981 9 | 31:33.07 | 1:16.25 | 141982 | 147706 10 | 32:49.32 | 4:28.50 | 147707 | 167856 11 | 37:18.07 | 3:29.10 | 167857 | 183541 12 | 40:47.17 | 3:12.70 | 183542 | 198011 13 | 44:00.12 | 2:11.60 | 198012 | 207896 14 | 46:11.72 | 4:20.05 | 207897 | 227401

Range status and errors

Selected range

Filename E:\Torrents\Mick Jagger & Dave Stewart - Alfie [OST]\Mick Jagger & Dave Stewart - Alfie [OST].wav

Peak level 99.8 % Range quality 100.0 % Copy CRC F5FBD537 Copy OK

No errors occurred

End of status report
Приятного прослушивания


Трекер:  [ 08-Июл-2011 13:03 ]

  

Скачать .torrent

Размер .torrent файла 13 KB


Размер: 308 MB
Хэш (hash) релиза: a470b917ed7897b15f37fdef32ed6fc2e0032a96

Еще никто не оставлял запись к записи скачать торрент Mick Jagger & Dave Stewart - Alfie Красавчик Альфи - 2004, APE . Будь первым!

!Обратная связь