Скачать через торрент музыку Чарли Чаплин - Музыка к ф «Нынешние времена» бесплатно без регистрации torrent

Если у вас наблюдаются проблемы со скриншотами, переходом по ссылками, скачиванием торрентов - проблемы в блокировщике рекламы AdBlock. #хорошегоДня!


Статистика раздачи
Размер:  175 MB   |    Зарегистрирован:  6 лет 2 месяца   |    .torrent скачан:  53 раза   |   
Раздают:  1  
   
Загрузка...
 
Автор Сообщение

Galfimbul

avatar Galfimbul


Чарли Чаплин - Музыка к к/ф «Нынешние времена» (Modern Times)

Жанр: Soundtrack
Год выпуска диска: 2002
Производитель диска: Россия
Аудио кодек: FLAC
Тип рипа: image+.cue
Битрейт аудио: lossless
Продолжительность: 32:34

Трэклист:
01. Main Title: Modern Times
02. The Factory Machine
03. The Factory Set
04. Charlie's Dance
05. Charlie At The Assembly Line Belt
06. The Ballet
07. Visions
08. The Gamin
09. Charlie At The Warden
10. Alone And Hangry
11. Smile(Love Theme)
12. In The City
13. Valse
14. The Sleeping Girl
15. Ten Days
16. At The Picture
17. Later That Night
18. Smile(Love Theme) and Closing Title
Чарльз Спенсер Чаплин родился 16 апреля 1889 года в Лондоне и за почти 89 лет своей жизни (до 25 декабря 1977 года) стал общепризнанным олицетворением «Великого немого». Его фильмы, снятые в начале XX века мы с удовольствием смотрим до сих пор. История жизни маленького забавного человечка с черными усиками, в потертом котелке, башмаках и костюме не по размеру - история Чарли - стала вечной. Дважды Чаплин удостаивался «Оскара», был обожаем публикой, но явно не любим Голливудом. В 1952 году Америка отказалась от него, а в 1972-м все-таки примирилась с гением, подарившим ей свои талант и славу. С 1915 по 1966 годы, все кинокартины великого мастера лишь только выйдя на экран, признавались шедеврами.
Он, единственный, смог удержать зрительский интерес к немому кино в эпоху звукового кинематографа. Чаплин сам писал замечательную музыку и, по его мнению, она «тактично дополняла не досказанное с безмолвного экрана».

«Нынешние времена»*, США, 1936
Режиссер - Чарльз Спенсер Чаплин
Продюсер - Чарльз Спенсер Чаплин
Музыка - Чарльз Спенсер Чаплин
Аранжировка - Альфред Ньюман
Сценарий - Чарльз Спенсер Чаплин
В ролях - Чарли Чаплин, Полет Годар
-------------------------------------------------
* Российскому зрителю фильм известен под названием «Новые времена»
Exact Audio Copy V0.99 prebeta 4 from 23. January 2008

Отчёт EAC об извлечении, выполненном 18. апреля 2009, 12:36

Чарли Чаплин / Музыка к к/ф Нынешние времена

Дисковод: Optiarc DVD RW AD-7203S Adapter: 1 ID: 1

Режим чтения : Достоверность
Использование точного потока : Да
Отключение кэша аудио : Да
Использование указателей C2 : Нет

Коррекция смещения при чтении : 48
Способность читать области Lead-in и Lead-out : Нет
Заполнение пропущенных сэмплов тишиной : Да
Удаление блоков с тишиной в начале и конце : Нет
При вычислениях CRC использовались нулевые сэмплы : Да
Интерфейс : Установленный внешний ASPI-интерфейс

Выходной формат : Внутренние WAV-операции
Формат сэмплов : 44.100 Гц; 16 бит; стерео

TOC извлечённого CD

Трек | Старт | Длительность | Начальный сектор | Конечный сектор
---------------------------------------------------------------------
1 | 0:00.00 | 1:45.72 | 0 | 7946
2 | 1:45.72 | 1:12.58 | 7947 | 13404
3 | 2:58.55 | 1:16.43 | 13405 | 19147
4 | 4:15.23 | 1:29.39 | 19148 | 25861
5 | 5:44.62 | 1:32.26 | 25862 | 32787
6 | 7:17.13 | 2:17.13 | 32788 | 43075
7 | 9:34.26 | 1:20.70 | 43076 | 49145
8 | 10:55.21 | 1:28.40 | 49146 | 55785
9 | 12:23.61 | 2:25.71 | 55786 | 66731
10 | 14:49.57 | 1:52.26 | 66732 | 75157
11 | 16:42.08 | 1:39.62 | 75158 | 82644
12 | 18:21.70 | 2:36.65 | 82645 | 94409
13 | 20:58.60 | 1:14.23 | 94410 | 99982
14 | 22:13.08 | 1:19.74 | 99983 | 105981
15 | 23:33.07 | 2:20.18 | 105982 | 116499
16 | 25:53.25 | 2:35.40 | 116500 | 128164
17 | 28:28.65 | 1:57.42 | 128165 | 136981
18 | 30:26.32 | 2:08.06 | 136982 | 146587

Характеристики диапазона извлечения и сообщения об ошибках

Выбранный диапазон

Имя файла C:\Documents and Settings\IK\Мои документы\Чарли Чаплин - Музыка к к ф Нынешние времена.wav

Пиковый уровень 96.1 %
Качество диапазона 99.9 %
CRC копии FA33A5F9
Копирование... OK

Ошибок не произошло

Конец отчёта


Трекер:  [ 08-Июл-2011 13:03 ]

  

Скачать .torrent

Размер .torrent файла 15 KB


Размер: 175 MB
Хэш (hash) релиза: 25fbf77fe7741e0757988696a30fb065ca5fac5b

Еще никто не оставлял запись к записи скачать торрент Чарли Чаплин - Музыка к ф «Нынешние времена» . Будь первым!

!Обратная связь