Скачать через торрент музыку Тюдоры The Tudors бесплатно без регистрации torrent

Если у вас наблюдаются проблемы со скриншотами, переходом по ссылками, скачиванием торрентов - проблемы в блокировщике рекламы AdBlock. #хорошегоДня!


Статистика раздачи
Размер:  202 MB   |    Зарегистрирован:  6 лет 2 месяца   |    .torrent скачан:  60 раз   |   
Раздают:  1  
   
Загрузка...
 
Автор Сообщение

Galfimbul

avatar Galfimbul



Жанр: Score | Год выпуска диска: 2007 | Производитель диска: Varese Sarabande
Аудио кодек: FLAC | Тип рипа: tracks+.cue | Битрейт аудио: lossless
Продолжительность: 00:46:31
Источник: WhatCD

 
01. The Tudors Main Title Theme [01:33]02. Murder In Urbino [02:07]03. Pleasured Distractions [01:38]04. Pathetic Fallacy [02:33]05. Henry Meets Anne Boelyn [02:06]06. Cardinal Wolsey's Secrets [00:56]07. An Historic Love [03:00]08. More's Love Of A King [00:47]09. Visions Of A Great Ruler [01:02]10. Fun And Games [01:03]11. Jousting [02:08]12. Mixed Messages From Anne [01:09]13. Whispers & Confessions [02:00]14. The Passion Of King Henry [01:54]15. Buckingham Plots For Murder [01:21]16. The War Room [02:40]17. A Queen's Loneliness [00:57]18. To Love A Country [01:21]19. The Sweating Sickness Arrives [02:02]20. Hallucinations [01:25]21. A Country At Death's Door [02:08]22. England Reborn [01:32]23. Behold The Great King Of England [02:50]24. Wolsey Arrested For Treason [01:47]25. Wolsey Commits Suicide / Finale [04:21]
 
Exact Audio Copy V0.99 prebeta 4 from 23. January 2008

EAC extraction logfile from 15. April 2008, 18:49

Trevor Morris / The Tudors

Used drive : Optiarc DVD RW AD-7203S Adapter: 0 ID: 1

Read mode : SecureUtilize accurate stream : YesDefeat audio cache : YesMake use of C2 pointers : No

Read offset correction : 48Overread into Lead-In and Lead-Out : NoFill up missing offset samples with silence : YesDelete leading and trailing silent blocks : NoNull samples used in CRC calculations : YesUsed interface : Native Win32 interface for Win NT & 2000Gap handling : Appended to previous track

Used output format : User Defined EncoderSelected bitrate : 128 kBit/sQuality : HighAdd ID3 tag : NoCommand line compressor : C:\Program Files\Exact Audio Copy\Flac\flac.exeAdditional command line options : -V -8 -T "artist=%a" -T "title=%t" -T "album=%g" -T "date=%y" -T "tracknumber=%n" -T "genre=%m" %s

TOC of the extracted CD

Track | Start | Length | Start sector | End sector --------------------------------------------------------- 1 | 0:00.00 | 1:33.11 | 0 | 6985 2 | 1:33.11 | 2:07.32 | 6986 | 16542 3 | 3:40.43 | 1:38.74 | 16543 | 23966 4 | 5:19.42 | 2:33.08 | 23967 | 35449 5 | 7:52.50 | 2:06.31 | 35450 | 44930 6 | 9:59.06 | 0:56.01 | 44931 | 49131 7 | 10:55.07 | 3:00.60 | 49132 | 62691 8 | 13:55.67 | 0:47.73 | 62692 | 66289 9 | 14:43.65 | 1:02.28 | 66290 | 70967 10 | 15:46.18 | 1:03.26 | 70968 | 75718 11 | 16:49.44 | 2:08.51 | 75719 | 85369 12 | 18:58.20 | 1:09.62 | 85370 | 90606 13 | 20:08.07 | 2:00.35 | 90607 | 99641 14 | 22:08.42 | 1:54.59 | 99642 | 108250 15 | 24:03.26 | 1:21.11 | 108251 | 114336 16 | 25:24.37 | 2:40.02 | 114337 | 126338 17 | 28:04.39 | 0:57.32 | 126339 | 130645 18 | 29:01.71 | 1:21.58 | 130646 | 136778 19 | 30:23.54 | 2:02.33 | 136779 | 145961 20 | 32:26.12 | 1:25.11 | 145962 | 152347 21 | 33:51.23 | 2:08.68 | 152348 | 162015 22 | 36:00.16 | 1:32.44 | 162016 | 168959 23 | 37:32.60 | 2:50.17 | 168960 | 181726 24 | 40:23.02 | 1:47.12 | 181727 | 189763 25 | 42:10.14 | 4:21.58 | 189764 | 209396

Track 1

Filename C:\My Music\++ uploads\The Tudors - Trevor Morris (FLAC) w log & cue\01 - The Tudors Main Title Theme.wav

Pre-gap length 0:00:02.00

Peak level 92.2 % Track quality 100.0 % Test CRC 4B70595E Copy CRC 4B70595E Track not present in AccurateRip database Copy OK

Track 2

Filename C:\My Music\++ uploads\The Tudors - Trevor Morris (FLAC) w log & cue\02 - Murder In Urbino.wav

Peak level 92.2 % Track quality 100.0 % Test CRC 9B6A9CB1 Copy CRC 9B6A9CB1 Track not present in AccurateRip database Copy OK

Track 3

Filename C:\My Music\++ uploads\The Tudors - Trevor Morris (FLAC) w log & cue\03 - Pleasured Distractions.wav

Peak level 17.7 % Track quality 100.0 % Test CRC 1F238F84 Copy CRC 1F238F84 Track not present in AccurateRip database Copy OK

Track 4

Filename C:\My Music\++ uploads\The Tudors - Trevor Morris (FLAC) w log & cue\04 - Pathetic Fallacy.wav

Peak level 95.4 % Track quality 99.9 % Test CRC ADB90287 Copy CRC ADB90287 Track not present in AccurateRip database Copy OK

Track 5

Filename C:\My Music\++ uploads\The Tudors - Trevor Morris (FLAC) w log & cue\05 - Henry Meets Anne Boelyn.wav

Peak level 68.0 % Track quality 100.0 % Test CRC 238499FD Copy CRC 238499FD Track not present in AccurateRip database Copy OK

Track 6

Filename C:\My Music\++ uploads\The Tudors - Trevor Morris (FLAC) w log & cue\06 - Cardinal Wolsey's Secrets.wav

Peak level 43.8 % Track quality 100.0 % Test CRC 0F69B58F Copy CRC 0F69B58F Track not present in AccurateRip database Copy OK

Track 7

Filename C:\My Music\++ uploads\The Tudors - Trevor Morris (FLAC) w log & cue\07 - An Historic Love.wav

Peak level 92.2 % Track quality 100.0 % Test CRC FB4AC11D Copy CRC FB4AC11D Track not present in AccurateRip database Copy OK

Track 8

Filename C:\My Music\++ uploads\The Tudors - Trevor Morris (FLAC) w log & cue\08 - More's Love Of A King.wav

Peak level 56.4 % Track quality 100.0 % Test CRC A7C9868B Copy CRC A7C9868B Track not present in AccurateRip database Copy OK

Track 9

Filename C:\My Music\++ uploads\The Tudors - Trevor Morris (FLAC) w log & cue\09 - Visions Of A Great Ruler.wav

Peak level 32.6 % Track quality 100.0 % Test CRC 7D74CCA5 Copy CRC 7D74CCA5 Track not present in AccurateRip database Copy OK

Track 10

Filename C:\My Music\++ uploads\The Tudors - Trevor Morris (FLAC) w log & cue\10 - Fun And Games.wav

Peak level 78.6 % Track quality 100.0 % Test CRC 147D0B21 Copy CRC 147D0B21 Track not present in AccurateRip database Copy OK

Track 11

Filename C:\My Music\++ uploads\The Tudors - Trevor Morris (FLAC) w log & cue\11 - Jousting.wav

Peak level 92.2 % Track quality 100.0 % Test CRC 52F42263 Copy CRC 52F42263 Track not present in AccurateRip database Copy OK

Track 12

Filename C:\My Music\++ uploads\The Tudors - Trevor Morris (FLAC) w log & cue\12 - Mixed Messages From Anne.wav

Peak level 65.8 % Track quality 100.0 % Test CRC 6F86D2E4 Copy CRC 6F86D2E4 Track not present in AccurateRip database Copy OK

Track 13

Filename C:\My Music\++ uploads\The Tudors - Trevor Morris (FLAC) w log & cue\13 - Whispers & Confessions.wav

Peak level 25.6 % Track quality 100.0 % Test CRC 200F9E1F Copy CRC 200F9E1F Track not present in AccurateRip database Copy OK

Track 14

Filename C:\My Music\++ uploads\The Tudors - Trevor Morris (FLAC) w log & cue\14 - The Passion Of King Henry.wav

Peak level 44.1 % Track quality 100.0 % Test CRC 3AE3A8AA Copy CRC 3AE3A8AA Track not present in AccurateRip database Copy OK

Track 15

Filename C:\My Music\++ uploads\The Tudors - Trevor Morris (FLAC) w log & cue\15 - Buckingham Plots For Murder.wav

Peak level 92.2 % Track quality 100.0 % Test CRC D8B45AF9 Copy CRC D8B45AF9 Track not present in AccurateRip database Copy OK

Track 16

Filename C:\My Music\++ uploads\The Tudors - Trevor Morris (FLAC) w log & cue\16 - The War Room.wav

Peak level 92.5 % Track quality 100.0 % Test CRC 2867EC43 Copy CRC 2867EC43 Track not present in AccurateRip database Copy OK

Track 17

Filename C:\My Music\++ uploads\The Tudors - Trevor Morris (FLAC) w log & cue\17 - A Queen's Loneliness.wav

Peak level 29.4 % Track quality 99.8 % Test CRC 2452EB21 Copy CRC 2452EB21 Track not present in AccurateRip database Copy OK

Track 18

Filename C:\My Music\++ uploads\The Tudors - Trevor Morris (FLAC) w log & cue\18 - To Love A Country.wav

Peak level 37.7 % Track quality 100.0 % Test CRC 7EE296ED Copy CRC 7EE296ED Track not present in AccurateRip database Copy OK

Track 19

Filename C:\My Music\++ uploads\The Tudors - Trevor Morris (FLAC) w log & cue\19 - The Sweating Sickness Arrives.wav

Peak level 58.4 % Track quality 100.0 % Test CRC CCFF3BD3 Copy CRC CCFF3BD3 Track not present in AccurateRip database Copy OK

Track 20

Filename C:\My Music\++ uploads\The Tudors - Trevor Morris (FLAC) w log & cue\20 - Hallucinations.wav

Peak level 92.2 % Track quality 100.0 % Test CRC DBB94AC3 Copy CRC DBB94AC3 Track not present in AccurateRip database Copy OK

Track 21

Filename C:\My Music\++ uploads\The Tudors - Trevor Morris (FLAC) w log & cue\21 - A Country At Death's Door.wav

Peak level 94.4 % Track quality 100.0 % Test CRC EBEA00BA Copy CRC EBEA00BA Track not present in AccurateRip database Copy OK

Track 22

Filename C:\My Music\++ uploads\The Tudors - Trevor Morris (FLAC) w log & cue\22 - England Reborn.wav

Peak level 43.6 % Track quality 100.0 % Test CRC 2CCE34F7 Copy CRC 2CCE34F7 Track not present in AccurateRip database Copy OK

Track 23

Filename C:\My Music\++ uploads\The Tudors - Trevor Morris (FLAC) w log & cue\23 - Behold The Great King Of England.wav

Peak level 95.4 % Track quality 100.0 % Test CRC 38D6DD96 Copy CRC 38D6DD96 Track not present in AccurateRip database Copy OK

Track 24

Filename C:\My Music\++ uploads\The Tudors - Trevor Morris (FLAC) w log & cue\24 - Wolsey Arrested For Treason.wav

Peak level 91.3 % Track quality 100.0 % Test CRC 07CA08E6 Copy CRC 07CA08E6 Track not present in AccurateRip database Copy OK

Track 25

Filename C:\My Music\++ uploads\The Tudors - Trevor Morris (FLAC) w log & cue\25 - Wolsey Commits Suicide , Finale.wav

Peak level 92.2 % Track quality 100.0 % Test CRC 405D9CF0 Copy CRC 405D9CF0 Track not present in AccurateRip database Copy OK

None of the tracks are present in the AccurateRip database

No errors occurred

End of status report
 
REM GENRE SoundtrackREM DATE 2007REM DISCID 340AE719REM COMMENT "ExactAudioCopy v0.99pb4"PERFORMER "Trevor Morris"TITLE "The Tudors"FILE "01 - The Tudors Main Title Theme.wav" WAVE TRACK 01 AUDIO TITLE "The Tudors Main Title Theme " PERFORMER "Trevor Morris" INDEX 01 00:00:00FILE "02 - Murder In Urbino.wav" WAVE TRACK 02 AUDIO TITLE "Murder In Urbino" PERFORMER "Trevor Morris" INDEX 01 00:00:00FILE "03 - Pleasured Distractions.wav" WAVE TRACK 03 AUDIO TITLE "Pleasured Distractions" PERFORMER "Trevor Morris" INDEX 01 00:00:00FILE "04 - Pathetic Fallacy.wav" WAVE TRACK 04 AUDIO TITLE "Pathetic Fallacy" PERFORMER "Trevor Morris" INDEX 01 00:00:00FILE "05 - Henry Meets Anne Boelyn.wav" WAVE TRACK 05 AUDIO TITLE "Henry Meets Anne Boelyn" PERFORMER "Trevor Morris" INDEX 01 00:00:00FILE "06 - Cardinal Wolsey's Secrets.wav" WAVE TRACK 06 AUDIO TITLE "Cardinal Wolsey's Secrets" PERFORMER "Trevor Morris" INDEX 01 00:00:00FILE "07 - An Historic Love.wav" WAVE TRACK 07 AUDIO TITLE "An Historic Love" PERFORMER "Trevor Morris" INDEX 01 00:00:00FILE "08 - More's Love Of A King.wav" WAVE TRACK 08 AUDIO TITLE "More's Love Of A King" PERFORMER "Trevor Morris" INDEX 01 00:00:00FILE "09 - Visions Of A Great Ruler.wav" WAVE TRACK 09 AUDIO TITLE "Visions Of A Great Ruler" PERFORMER "Trevor Morris" INDEX 01 00:00:00FILE "10 - Fun And Games.wav" WAVE TRACK 10 AUDIO TITLE "Fun And Games" PERFORMER "Trevor Morris" INDEX 01 00:00:00FILE "11 - Jousting.wav" WAVE TRACK 11 AUDIO TITLE "Jousting" PERFORMER "Trevor Morris" INDEX 01 00:00:00FILE "12 - Mixed Messages From Anne.wav" WAVE TRACK 12 AUDIO TITLE "Mixed Messages From Anne" PERFORMER "Trevor Morris" INDEX 01 00:00:00FILE "13 - Whispers & Confessions.wav" WAVE TRACK 13 AUDIO TITLE "Whispers & Confessions" PERFORMER "Trevor Morris" INDEX 01 00:00:00FILE "14 - The Passion Of King Henry.wav" WAVE TRACK 14 AUDIO TITLE "The Passion Of King Henry" PERFORMER "Trevor Morris" INDEX 01 00:00:00FILE "15 - Buckingham Plots For Murder.wav" WAVE TRACK 15 AUDIO TITLE "Buckingham Plots For Murder" PERFORMER "Trevor Morris" INDEX 01 00:00:00FILE "16 - The War Room.wav" WAVE TRACK 16 AUDIO TITLE "The War Room" PERFORMER "Trevor Morris" INDEX 01 00:00:00FILE "17 - A Queen's Loneliness.wav" WAVE TRACK 17 AUDIO TITLE "A Queen's Loneliness" PERFORMER "Trevor Morris" INDEX 01 00:00:00FILE "18 - To Love A Country.wav" WAVE TRACK 18 AUDIO TITLE "To Love A Country" PERFORMER "Trevor Morris" INDEX 01 00:00:00FILE "19 - The Sweating Sickness Arrives.wav" WAVE TRACK 19 AUDIO TITLE "The Sweating Sickness Arrives" PERFORMER "Trevor Morris" INDEX 01 00:00:00FILE "20 - Hallucinations.wav" WAVE TRACK 20 AUDIO TITLE "Hallucinations" PERFORMER "Trevor Morris" INDEX 01 00:00:00FILE "21 - A Country At Death's Door.wav" WAVE TRACK 21 AUDIO TITLE "A Country At Death's Door" PERFORMER "Trevor Morris" INDEX 01 00:00:00FILE "22 - England Reborn.wav" WAVE TRACK 22 AUDIO TITLE "England Reborn" PERFORMER "Trevor Morris" INDEX 01 00:00:00FILE "23 - Behold The Great King Of England.wav" WAVE TRACK 23 AUDIO TITLE "Behold The Great King Of England" PERFORMER "Trevor Morris" INDEX 01 00:00:00FILE "24 - Wolsey Arrested For Treason.wav" WAVE TRACK 24 AUDIO TITLE "Wolsey Arrested For Treason" PERFORMER "Trevor Morris" INDEX 01 00:00:00FILE "25 - Wolsey Commits Suicide , Finale.wav" WAVE TRACK 25 AUDIO TITLE "Wolsey Commits Suicide / Finale" PERFORMER "Trevor Morris" INDEX 01 00:00:00


Трекер:  [ 08-Июл-2011 13:03 ]

  

Скачать .torrent

Размер .torrent файла 10 KB


Размер: 202 MB
Хэш (hash) релиза: 6a1b6b8beee1cb6ee1bf69a4862d9c8b195823e3

Еще никто не оставлял запись к записи скачать торрент Тюдоры The Tudors . Будь первым!

!Обратная связь