Скачать через торрент музыку Настоящая кровь True Blood бесплатно без регистрации torrent

Если у вас наблюдаются проблемы со скриншотами, переходом по ссылками, скачиванием торрентов - проблемы в блокировщике рекламы AdBlock. #хорошегоДня!


Статистика раздачи
Размер:  213 MB   |    Зарегистрирован:  6 лет 2 месяца   |    .torrent скачан:  63 раза   |   
Раздают:  1  
   
Загрузка...
 
Автор Сообщение

Galfimbul

avatar Galfimbul


Настоящая кровь / True Blood
Music by Nathan Barr

Жанр: Score
Год выпуска диска: 2009
Производитель диска: USA, Varese Sarabande
Аудио кодек: FLAC
Тип рипа: image+.cue
Битрейт аудио: lossless
Продолжительность: 00:44:50



01. Take Me Home (vocal by Lisbeth Scott) (2:33)
02. Hairclip (1:44)
03. Bill's Lament (1:08)
04. Gran's Story (1:49)
05. Bill's Entrance (1:29)
06. First Taste (1:21)
07. Tara In The Pool (1:23)
08. Tripping (1:42)
09. Tara And Mother (1:06)
10. Grieve To Grave To Groove (3:15)
11. The Tribunal (2:32)
12. Amy's Goodbye (2:12)
13. Bill And Sookie Together (2:24)
14. Priapism (2:15)
15. More Than You Can Imagine (1:43)
16. The Cabin (5:23)
17. The Funeral (2:37)
18. Sancto Erico (vocals by Lisbeth Scott & Nathan Barr) (1:39)
19. Bill And Sookie's Reunion (1:22)
20. Jason And Amy (2:17)
21. Love Theme (piano by Lisbeth Scott) (2:57)
 
Exact Audio Copy V0.99 prebeta 4 from 23. January 2008

EAC extraction logfile from 14. September 2009, 18:06

Nathan Barr / True Blood Original Score

Used drive : HL-DT-STDVD-RAM GH22LS30 Adapter: 1 ID: 0

Read mode : SecureUtilize accurate stream : YesDefeat audio cache : YesMake use of C2 pointers : No

Read offset correction : 102Overread into Lead-In and Lead-Out : NoFill up missing offset samples with silence : YesDelete leading and trailing silent blocks : NoNull samples used in CRC calculations : YesUsed interface : Native Win32 interface for Win NT & 2000

Used output format : Internal WAV RoutinesSample format : 44.100 Hz; 16 Bit; Stereo

TOC of the extracted CD

Track | Start | Length | Start sector | End sector --------------------------------------------------------- 1 | 0:00.00 | 2:32.58 | 0 | 11457 2 | 2:32.58 | 1:44.12 | 11458 | 19269 3 | 4:16.70 | 1:07.50 | 19270 | 24344 4 | 5:24.45 | 1:49.21 | 24345 | 32540 5 | 7:13.66 | 1:29.20 | 32541 | 39235 6 | 8:43.11 | 1:21.02 | 39236 | 45312 7 | 10:04.13 | 1:23.17 | 45313 | 51554 8 | 11:27.30 | 1:42.11 | 51555 | 59215 9 | 13:09.41 | 1:06.01 | 59216 | 64166 10 | 14:15.42 | 3:15.04 | 64167 | 78795 11 | 17:30.46 | 2:31.60 | 78796 | 90180 12 | 20:02.31 | 2:12.12 | 90181 | 100092 13 | 22:14.43 | 2:24.00 | 100093 | 110892 14 | 24:38.43 | 2:14.56 | 110893 | 120998 15 | 26:53.24 | 1:42.60 | 120999 | 128708 16 | 28:36.09 | 5:23.17 | 128709 | 152950 17 | 33:59.26 | 2:36.45 | 152951 | 164695 18 | 36:35.71 | 1:38.54 | 164696 | 172099 19 | 38:14.50 | 1:21.41 | 172100 | 178215 20 | 39:36.16 | 2:16.57 | 178216 | 188472 21 | 41:52.73 | 2:56.46 | 188473 | 201718

Range status and errors

Selected range

Filename G:\Lossless Music\Nathan Barr - True Blood Original Score\Nathan Barr - True Blood Original Score.wav

Peak level 100.0 % Range quality 100.0 % Copy CRC 1D31D3D8 Copy OK

No errors occurred

AccurateRip summary

Track 1 not present in databaseTrack 2 not present in databaseTrack 3 not present in databaseTrack 4 not present in databaseTrack 5 not present in databaseTrack 6 not present in databaseTrack 7 not present in databaseTrack 8 not present in databaseTrack 9 not present in databaseTrack 10 not present in databaseTrack 11 not present in databaseTrack 12 not present in databaseTrack 13 not present in databaseTrack 14 not present in databaseTrack 15 not present in databaseTrack 16 not present in databaseTrack 17 not present in databaseTrack 18 not present in databaseTrack 19 not present in databaseTrack 20 not present in databaseTrack 21 not present in database

None of the tracks are present in the AccurateRip database

End of status report


Трекер:  [ 08-Июл-2011 13:04 ]

  

Скачать .torrent

Размер .torrent файла 9 KB


Размер: 213 MB
Хэш (hash) релиза: deb0bb0c5c948a8dc9b6aa2d95cb61a8408cd1fc

Торренты, похожие на Настоящая кровь True Blood скачать торрент

Форум Название Автор Размер S L Добавлен
Саундтреки к фильмам и мультфильмам (lossless) ·· (Soundtrack) Настоящая кровь / True Blood: Volume 1-3 (2009-2011) [FLAC (tracks+.cue) lossless] chester 983837562938 MB 0 0 1321711258

17:00

19-Ноя-11

Саундтреки к фильмам и мультфильмам (lossless) ·· (Soundtrack) Настоящая кровь / True Blood: Volume 2 - 2010 [FLAC (tracks+.cue) lossless] AqvaGen 325813470311 MB 0 0 1292268691

22:31

13-Дек-10

Саундтреки к фильмам и мультфильмам (lossless) ·· (Soundtrack) Настоящая кровь / True Blood (VA) - 2009, FLAC (tracks+.cue), lossless Galfimbul 318645470304 MB 0 0 1292268533

22:28

13-Дек-10

Саундтреки к фильмам и мультфильмам (mp3) ·· (Score) Настоящая кровь / True Blood (by Nathan Barr) - 2008, MP3, 320 kbps Galfimbul 111041017106 MB 0 0 1292265766

21:42

13-Дек-10

Саундтреки к фильмам и мультфильмам (mp3) ·· (Soundtrack) Настоящая кровь / True Blood [Vol1 & Vol2] - 2009-2010, MP3 (tracks), 320 kbps Galfimbul 241169731230 MB 0 0 1292265332

21:35

13-Дек-10

Саундтреки к фильмам и мультфильмам (mp3) ·· [Soundtrack / Unofficial] Настоящая Кровь (Сезон 4) / True Blood (Season 4) - 2011, MP3, 128-320 kbps AqvaGen 197987124189 MB 0 0 1312720632

15:37

7-Авг-11

Еще никто не оставлял запись к записи скачать торрент Настоящая кровь True Blood . Будь первым!

!Обратная связь