Скачать через торрент музыку David Arnold & Jack White & Alicia Keys - James Bond: Quantum of Solace бесплатно без регистрации torrent

Если у вас наблюдаются проблемы со скриншотами, переходом по ссылками, скачиванием торрентов - проблемы в блокировщике рекламы AdBlock. #хорошегоДня!


Статистика раздачи
Размер:  321 MB   |    Зарегистрирован:  6 лет 2 месяца   |    .torrent скачан:  42 раза   |   
Раздают:  1  
   
Загрузка...
 
Автор Сообщение

Galfimbul

avatar Galfimbul


Quantum of Solace: Original Motion Picture Soundtrack

Композитор: David Arnold
Жанр: Electronic, Soundtrack
Год выпуска диска: 2008
Производитель диска: US
Аудио кодек: FLAC
Тип рипа: tracks+.cue
Битрейт аудио: lossless
Продолжительность: 1:01:24
Трэклист:
01. Time To Get Out - David Arnold (3:28.)
02. The Palio - David Arnold (4:59)
03. Inside Man - David Arnold (0:38.)
04. Bond In Haiti - David Arnold (0:35)
05. Somebody Wants To Kill You - David Arnold (2:17)
06. Greene & Camille - David Arnold (2:13)
07. Pursuit At Port Au Prince - David Arnold (5:58.)
08. No Interest In Dominic Greene - David Arnold (2:44)
09. Night At The Opera - David Arnold (3:02)
10. Restrict Bond's Movements - David Arnold (1:31)
11. Talamone - David Arnold (0:34)
12. What's Keeping You Awake - David Arnold (1:40)
13. Bolivian Taxi Ride - David Arnold (0:49)
14. Field Trip - David Arnold (0:41)
15. Forgive Yourself - David Arnold (2:26)
16. Dc3 - David Arnold (1:15)
17. Target Terminated - David Arnold (3:53)
18. Camille's Story - David Arnold (3:58.)
19. Oil Fields - David Arnold (2:29)
20. Have You Ever Killed Someone? - David Arnold (1:32)
21. Perla De Las Dunas - David Arnold (8:07)
22. The Dead Don't Care About Vengeance - David Arnold (1:14)
23. I Never Left - David Arnold (0:40)
24. Another Way To Die - Alicia Keys & Jack White (4:23)

 
Exact Audio Copy V0.99 prebeta 4 from 23. January 2008

EAC extraction logfile from 6. November 2008, 19:04

Various / Quantum Of Solace

Used drive : TSSTcorpDVD-ROM TS-H352C Adapter: 1 ID: 1

Read mode : SecureUtilize accurate stream : YesDefeat audio cache : YesMake use of C2 pointers : No

Read offset correction : 6Overread into Lead-In and Lead-Out : NoFill up missing offset samples with silence : YesDelete leading and trailing silent blocks : NoNull samples used in CRC calculations : YesUsed interface : Installed external ASPI interfaceGap handling : Appended to previous track

Used output format : User Defined EncoderSelected bitrate : 192 kBit/sQuality : HighAdd ID3 tag : NoCommand line compressor : C:\Program Files\FLAC\flac.exeAdditional command line options : -8 -A tukey(0.25) -A gauss(0.1875) -b 4096 -V -T "artist=%a" -T "title=%t" -T "album=%g" -T "date=%y" -T "tracknumber=%n" -T "genre=%m" %s --sector-align

TOC of the extracted CD

Track | Start | Length | Start sector | End sector --------------------------------------------------------- 1 | 0:00.00 | 3:28.63 | 0 | 15662 2 | 3:28.63 | 4:59.63 | 15663 | 38150 3 | 8:28.51 | 0:38.52 | 38151 | 41052 4 | 9:07.28 | 0:35.35 | 41053 | 43712 5 | 9:42.63 | 2:17.61 | 43713 | 54048 6 | 12:00.49 | 2:13.66 | 54049 | 64089 7 | 14:14.40 | 5:58.36 | 64090 | 90975 8 | 20:13.01 | 2:44.27 | 90976 | 103302 9 | 22:57.28 | 3:02.24 | 103303 | 116976 10 | 25:59.52 | 1:31.63 | 116977 | 123864 11 | 27:31.40 | 0:35.00 | 123865 | 126489 12 | 28:06.40 | 1:41.08 | 126490 | 134072 13 | 29:47.48 | 0:49.41 | 134073 | 137788 14 | 30:37.14 | 0:41.73 | 137789 | 140936 15 | 31:19.12 | 2:26.71 | 140937 | 151957 16 | 33:46.08 | 1:15.31 | 151958 | 157613 17 | 35:01.39 | 3:54.16 | 157614 | 175179 18 | 38:55.55 | 3:59.05 | 175180 | 193109 19 | 42:54.60 | 2:29.35 | 193110 | 204319 20 | 45:24.20 | 1:33.19 | 204320 | 211313 21 | 46:57.39 | 8:08.17 | 211314 | 247930 22 | 55:05.56 | 1:14.50 | 247931 | 253530 23 | 56:20.31 | 0:40.41 | 253531 | 256571 24 | 57:00.72 | 4:23.58 | 256572 | 276354

Track 1

Filename N:\Music\James Bond\UnRAR\BOND 022 - Quantum Of Solace (2008)\01 - Time To Get Out.wav

Pre-gap length 0:00:02.00

Peak level 98.0 % Track quality 100.0 % Test CRC 0C83F13F Copy CRC 0C83F13F Copy OK

Track 2

Filename N:\Music\James Bond\UnRAR\BOND 022 - Quantum Of Solace (2008)\02 - The Palio.wav

Pre-gap length 0:00:00.28

Peak level 98.0 % Track quality 99.9 % Test CRC A939E216 Copy CRC A939E216 Copy OK

Track 3

Filename N:\Music\James Bond\UnRAR\BOND 022 - Quantum Of Solace (2008)\03 - Inside Man.wav

Pre-gap length 0:00:00.28

Peak level 98.0 % Track quality 100.0 % Test CRC 381378B0 Copy CRC 381378B0 Copy OK

Track 4

Filename N:\Music\James Bond\UnRAR\BOND 022 - Quantum Of Solace (2008)\04 - Bond In Haiti.wav

Pre-gap length 0:00:00.28

Peak level 98.0 % Track quality 100.0 % Test CRC 5DA41726 Copy CRC 5DA41726 Copy OK

Track 5

Filename N:\Music\James Bond\UnRAR\BOND 022 - Quantum Of Solace (2008)\05 - Somebody Wants To Kill You.wav

Pre-gap length 0:00:00.28

Peak level 98.0 % Track quality 99.9 % Test CRC 73A72D5E Copy CRC 73A72D5E Copy OK

Track 6

Filename N:\Music\James Bond\UnRAR\BOND 022 - Quantum Of Solace (2008)\06 - Greene & Camille.wav

Pre-gap length 0:00:00.28

Peak level 62.5 % Track quality 100.0 % Test CRC CCEA12FF Copy CRC CCEA12FF Copy OK

Track 7

Filename N:\Music\James Bond\UnRAR\BOND 022 - Quantum Of Solace (2008)\07 - Pursuit At Port Au Prince.wav

Pre-gap length 0:00:00.28

Peak level 98.0 % Track quality 100.0 % Test CRC DA4E0851 Copy CRC DA4E0851 Copy OK

Track 8

Filename N:\Music\James Bond\UnRAR\BOND 022 - Quantum Of Solace (2008)\08 - No Interest In Dominic Greene.wav

Pre-gap length 0:00:00.28

Peak level 83.3 % Track quality 99.9 % Test CRC 12A7ABD9 Copy CRC 12A7ABD9 Copy OK

Track 9

Filename N:\Music\James Bond\UnRAR\BOND 022 - Quantum Of Solace (2008)\09 - Night At The Opera.wav

Pre-gap length 0:00:00.28

Peak level 98.0 % Track quality 100.0 % Test CRC 09D5A799 Copy CRC 09D5A799 Copy OK

Track 10

Filename N:\Music\James Bond\UnRAR\BOND 022 - Quantum Of Solace (2008)\10 - Restrict Bond's Movements.wav

Pre-gap length 0:00:00.28

Peak level 47.0 % Track quality 100.0 % Test CRC 0FB2A3FD Copy CRC 0FB2A3FD Copy OK

Track 11

Filename N:\Music\James Bond\UnRAR\BOND 022 - Quantum Of Solace (2008)\11 - Talamone.wav

Pre-gap length 0:00:00.28

Peak level 100.0 % Track quality 100.0 % Test CRC B755A08B Copy CRC B755A08B Copy OK

Track 12

Filename N:\Music\James Bond\UnRAR\BOND 022 - Quantum Of Solace (2008)\12 - What's Keeping You Awake.wav

Pre-gap length 0:00:00.28

Peak level 62.6 % Track quality 100.0 % Test CRC FE4788E5 Copy CRC FE4788E5 Copy OK

Track 13

Filename N:\Music\James Bond\UnRAR\BOND 022 - Quantum Of Solace (2008)\13 - Bolivian Taxi Ride.wav

Pre-gap length 0:00:00.28

Peak level 98.0 % Track quality 100.0 % Test CRC 13CB3A8A Copy CRC 13CB3A8A Copy OK

Track 14

Filename N:\Music\James Bond\UnRAR\BOND 022 - Quantum Of Solace (2008)\14 - Field Trip.wav

Pre-gap length 0:00:00.28

Peak level 88.3 % Track quality 100.0 % Test CRC 5A0A1A16 Copy CRC 5A0A1A16 Copy OK

Track 15

Filename N:\Music\James Bond\UnRAR\BOND 022 - Quantum Of Solace (2008)\15 - Forgive Yourself.wav

Pre-gap length 0:00:00.28

Peak level 98.0 % Track quality 100.0 % Test CRC 4635CECA Copy CRC 4635CECA Copy OK

Track 16

Filename N:\Music\James Bond\UnRAR\BOND 022 - Quantum Of Solace (2008)\16 - DC3.wav

Pre-gap length 0:00:00.28

Peak level 98.0 % Track quality 100.0 % Test CRC DB048850 Copy CRC DB048850 Copy OK

Track 17

Filename N:\Music\James Bond\UnRAR\BOND 022 - Quantum Of Solace (2008)\17 - Target Terminated.wav

Pre-gap length 0:00:00.28

Peak level 98.0 % Track quality 100.0 % Test CRC 07D11AA7 Copy CRC 07D11AA7 Copy OK

Track 18

Filename N:\Music\James Bond\UnRAR\BOND 022 - Quantum Of Solace (2008)\18 - Camille's Story.wav

Pre-gap length 0:00:00.28

Peak level 86.9 % Track quality 99.9 % Test CRC E8C21BB3 Copy CRC E8C21BB3 Copy OK

Track 19

Filename N:\Music\James Bond\UnRAR\BOND 022 - Quantum Of Solace (2008)\19 - Oil Fields.wav

Pre-gap length 0:00:00.28

Peak level 98.0 % Track quality 100.0 % Test CRC E0029F46 Copy CRC E0029F46 Copy OK

Track 20

Filename N:\Music\James Bond\UnRAR\BOND 022 - Quantum Of Solace (2008)\20 - Have You Ever Killed Someone .wav

Pre-gap length 0:00:00.28

Peak level 98.0 % Track quality 100.0 % Test CRC CB2526D2 Copy CRC CB2526D2 Copy OK

Track 21

Filename N:\Music\James Bond\UnRAR\BOND 022 - Quantum Of Solace (2008)\21 - Perla De Las Dunas.wav

Pre-gap length 0:00:00.90

Peak level 98.0 % Track quality 100.0 % Test CRC 06FAFA35 Copy CRC 06FAFA35 Copy OK

Track 22

Filename N:\Music\James Bond\UnRAR\BOND 022 - Quantum Of Solace (2008)\22 - The Dead Don't Care About Vengeance.wav

Pre-gap length 0:00:00.28

Peak level 94.3 % Track quality 100.0 % Test CRC CB3D7433 Copy CRC CB3D7433 Copy OK

Track 23

Filename N:\Music\James Bond\UnRAR\BOND 022 - Quantum Of Solace (2008)\23 - I Never Left.wav

Pre-gap length 0:00:00.28

Peak level 98.0 % Track quality 100.0 % Test CRC 6EA837EE Copy CRC 6EA837EE Copy OK

Track 24

Filename N:\Music\James Bond\UnRAR\BOND 022 - Quantum Of Solace (2008)\24 - Another Way To Die.wav

Peak level 98.0 % Track quality 100.0 % Test CRC 59956616 Copy CRC 59956616 Copy OK

No errors occurred

End of status report
 
AUDIOCHECKER v1.2 - by Dester - opdester@freemail.hu~~~~~~~~~~~~~~~~~

01 -===- D:\David Arnold - Quantum of Solace - Original Motion Picture Soundtrack (2008)\01 - Time To Get Out.flac Extracted successfully Conclusion: This track looks like CDDA with probability 100%

02 -===- D:\David Arnold - Quantum of Solace - Original Motion Picture Soundtrack (2008)\02 - The Palio.flac Extracted successfully Conclusion: This track looks like CDDA with probability 100%

03 -===- D:\David Arnold - Quantum of Solace - Original Motion Picture Soundtrack (2008)\03 - Inside Man.flac Extracted successfully Conclusion: This track looks like CDDA with probability 99%

04 -===- D:\David Arnold - Quantum of Solace - Original Motion Picture Soundtrack (2008)\04 - Bond In Haiti.flac Extracted successfully Conclusion: This track looks like CDDA with probability 100%

05 -===- D:\David Arnold - Quantum of Solace - Original Motion Picture Soundtrack (2008)\05 - Somebody Wants To Kill You.flac Extracted successfully Conclusion: This track looks like CDDA with probability 100%

06 -===- D:\David Arnold - Quantum of Solace - Original Motion Picture Soundtrack (2008)\06 - Greene & Camille.flac Extracted successfully Conclusion: This track looks like CDDA with probability 100%

07 -===- D:\David Arnold - Quantum of Solace - Original Motion Picture Soundtrack (2008)\07 - Pursuit At Port Au Prince.flac Extracted successfully Conclusion: This track looks like CDDA with probability 100%

08 -===- D:\David Arnold - Quantum of Solace - Original Motion Picture Soundtrack (2008)\08 - No Interest In Dominic Greene.flac Extracted successfully Conclusion: This track looks like CDDA with probability 99%

09 -===- D:\David Arnold - Quantum of Solace - Original Motion Picture Soundtrack (2008)\09 - Night At The Opera.flac Extracted successfully Conclusion: This track looks like CDDA with probability 100%

10 -===- D:\David Arnold - Quantum of Solace - Original Motion Picture Soundtrack (2008)\10 - Restrict Bond's Movements.flac Extracted successfully Conclusion: This track looks like CDDA with probability 100%

11 -===- D:\David Arnold - Quantum of Solace - Original Motion Picture Soundtrack (2008)\11 - Talamone.flac Extracted successfully Conclusion: This track looks like CDDA with probability 100%

12 -===- D:\David Arnold - Quantum of Solace - Original Motion Picture Soundtrack (2008)\12 - What's Keeping You Awake.flac Extracted successfully Conclusion: This track looks like CDDA with probability 100%

13 -===- D:\David Arnold - Quantum of Solace - Original Motion Picture Soundtrack (2008)\13 - Bolivian Taxi Ride.flac Extracted successfully Conclusion: This track looks like CDDA with probability 100%

14 -===- D:\David Arnold - Quantum of Solace - Original Motion Picture Soundtrack (2008)\14 - Field Trip.flac Extracted successfully Conclusion: This track looks like CDDA with probability 100%

15 -===- D:\David Arnold - Quantum of Solace - Original Motion Picture Soundtrack (2008)\15 - Forgive Yourself.flac Extracted successfully Conclusion: This track looks like CDDA with probability 100%

16 -===- D:\David Arnold - Quantum of Solace - Original Motion Picture Soundtrack (2008)\16 - DC3.flac Extracted successfully Conclusion: This track looks like CDDA with probability 100%

17 -===- D:\David Arnold - Quantum of Solace - Original Motion Picture Soundtrack (2008)\17 - Target Terminated.flac Extracted successfully Conclusion: This track looks like CDDA with probability 100%

18 -===- D:\David Arnold - Quantum of Solace - Original Motion Picture Soundtrack (2008)\18 - Camille's Story.flac Extracted successfully Conclusion: This track looks like CDDA with probability 100%

19 -===- D:\David Arnold - Quantum of Solace - Original Motion Picture Soundtrack (2008)\19 - Oil Fields.flac Extracted successfully Conclusion: This track looks like CDDA with probability 100%

20 -===- D:\David Arnold - Quantum of Solace - Original Motion Picture Soundtrack (2008)\20 - Have You Ever Killed Someone .flac Extracted successfully Conclusion: This track looks like CDDA with probability 100%

21 -===- D:\David Arnold - Quantum of Solace - Original Motion Picture Soundtrack (2008)\21 - Perla De Las Dunas.flac Extracted successfully Conclusion: This track looks like CDDA with probability 100%

22 -===- D:\David Arnold - Quantum of Solace - Original Motion Picture Soundtrack (2008)\22 - The Dead Don't Care About Vengeance.flac Extracted successfully Conclusion: This track looks like CDDA with probability 100%

23 -===- D:\David Arnold - Quantum of Solace - Original Motion Picture Soundtrack (2008)\23 - I Never Left.flac Extracted successfully Conclusion: This track looks like CDDA with probability 100%

24 -===- D:\David Arnold - Quantum of Solace - Original Motion Picture Soundtrack (2008)\24 - Another Way To Die.flac Extracted successfully Conclusion: This track looks like CDDA with probability 100%


Трекер:  [ 08-Июл-2011 13:08 ]

  

Скачать .torrent

Размер .torrent файла 15 KB


Размер: 321 MB
Хэш (hash) релиза: 1c40707787090f0cdca8c3a8b1b1f9e12728fbdd

Еще никто не оставлял запись к записи скачать торрент David Arnold & Jack White & Alicia Keys - James Bond: Quantum of Solace . Будь первым!

!Обратная связь