Скачать через торрент музыку Каприка Caprica бесплатно без регистрации torrent

Если у вас наблюдаются проблемы со скриншотами, переходом по ссылками, скачиванием торрентов - проблемы в блокировщике рекламы AdBlock. #хорошегоДня!


Статистика раздачи
Размер:  220 MB   |    Зарегистрирован:  6 лет 5 месяцев   |    .torrent скачан:  38 раз   |   
Раздают:  1  
   
Загрузка...
 
Автор Сообщение

Galfimbul

avatar Galfimbul


Каприка / Caprica
Music by Bear McCreary

Жанр: Score
Год выпуска диска: 2009
Производитель диска: USA, La-La Land Records
Аудио кодек: FLAC
Тип рипа: tracks+.cue
Битрейт аудио: lossless
Продолжительность: 00:54:03



Трэклист:
1. The Graystone Family (2:01)
2. Terrorism On The Lev (3:13)
3. Grieving (3:45)
4. Lacey and Zoe-A (4:07)
5. Cybernetic Life Form Node (3:14)
6. Zoe’s Avatar (3:03)
7. Daniel Captures the Code (2:28)
8. A Tauron Sacrifice (2:44)
9. Amanda Graystone (3:04)
10. Joseph and Daniel (4:17)
11. Tamara’s Heartbeat (1:41)
12. Delivering the Message (2:55)
13. Monotheism At The Athena Academy (3:33)
14. Children of Caprica (2:28)
15. Irrecoverable Error (2:46)
16. The Adama Name (1:38)
17. Zoe Awakens (2:21)
18. Caprica End Credits (3:37)
 
Exact Audio Copy V0.99 prebeta 5 from 4. May 2009

EAC extraction logfile from 20. June 2009, 17:20

Bear McCreary / Caprica

Used drive : TSSTcorpDVD-ROM TS-H352C Adapter: 1 ID: 1

Read mode : SecureUtilize accurate stream : YesDefeat audio cache : YesMake use of C2 pointers : No

Read offset correction : 6Overread into Lead-In and Lead-Out : NoFill up missing offset samples with silence : YesDelete leading and trailing silent blocks : NoNull samples used in CRC calculations : YesUsed interface : Installed external ASPI interfaceGap handling : Appended to previous track

Used output format : User Defined EncoderSelected bitrate : 320 kBit/sQuality : HighAdd ID3 tag : NoCommand line compressor : C:\Program Files\FLAC\flac.exeAdditional command line options : -V -8 -T "artist=%a" -T "title=%t" -T "album=%g" -T "date=%y" -T "tracknumber=%n" -T "genre=%m" %s

TOC of the extracted CD

Track | Start | Length | Start sector | End sector --------------------------------------------------------- 1 | 0:00.00 | 3:01.08 | 0 | 13582 2 | 3:01.08 | 3:13.73 | 13583 | 28130 3 | 6:15.06 | 3:45.04 | 28131 | 45009 4 | 10:00.10 | 4:07.12 | 45010 | 63546 5 | 14:07.22 | 3:14.69 | 63547 | 78165 6 | 17:22.16 | 3:03.45 | 78166 | 91935 7 | 20:25.61 | 2:28.52 | 91936 | 103087 8 | 22:54.38 | 2:44.70 | 103088 | 115457 9 | 25:39.33 | 3:04.55 | 115458 | 129312 10 | 28:44.13 | 4:17.31 | 129313 | 148618 11 | 33:01.44 | 1:41.30 | 148619 | 156223 12 | 34:42.74 | 2:55.25 | 156224 | 169373 13 | 37:38.24 | 3:33.25 | 169374 | 185373 14 | 41:11.49 | 2:28.70 | 185374 | 196543 15 | 43:40.44 | 2:46.07 | 196544 | 209000 16 | 46:26.51 | 1:38.41 | 209001 | 216391 17 | 48:05.17 | 2:21.24 | 216392 | 226990 18 | 50:26.41 | 3:37.00 | 226991 | 243265

Track 1

Filename N:\Music\Caprica\Caprica (2009, FLAC) - Bear McCreary\01 - The Graystone Family.wav

Pre-gap length 0:00:02.00

Peak level 99.5 % Track quality 100.0 % Test CRC 3395ED3F Copy CRC 3395ED3F Track not present in AccurateRip database Copy OK

Track 2

Filename N:\Music\Caprica\Caprica (2009, FLAC) - Bear McCreary\02 - Terrorism On The Lev.wav

Pre-gap length 0:00:02.00

Peak level 99.7 % Track quality 100.0 % Test CRC D2A5A22B Copy CRC D2A5A22B Track not present in AccurateRip database Copy OK

Track 3

Filename N:\Music\Caprica\Caprica (2009, FLAC) - Bear McCreary\03 - Grieving.wav

Pre-gap length 0:00:02.00

Peak level 51.6 % Track quality 100.0 % Test CRC 2A389826 Copy CRC 2A389826 Track not present in AccurateRip database Copy OK

Track 4

Filename N:\Music\Caprica\Caprica (2009, FLAC) - Bear McCreary\04 - Lacey And Zoe-A.wav

Pre-gap length 0:00:02.00

Peak level 100.0 % Track quality 100.0 % Test CRC 0AD1319E Copy CRC 0AD1319E Track not present in AccurateRip database Copy OK

Track 5

Filename N:\Music\Caprica\Caprica (2009, FLAC) - Bear McCreary\05 - Cybernetic Life Form Node.wav

Pre-gap length 0:00:02.00

Peak level 100.0 % Track quality 99.9 % Test CRC EFA0CC7A Copy CRC EFA0CC7A Track not present in AccurateRip database Copy OK

Track 6

Filename N:\Music\Caprica\Caprica (2009, FLAC) - Bear McCreary\06 - Zoe's Avatar.wav

Pre-gap length 0:00:02.00

Peak level 52.8 % Track quality 99.9 % Test CRC F971A2FD Copy CRC F971A2FD Track not present in AccurateRip database Copy OK

Track 7

Filename N:\Music\Caprica\Caprica (2009, FLAC) - Bear McCreary\07 - Daniel Captures The Code.wav

Pre-gap length 0:00:02.00

Peak level 99.5 % Track quality 100.0 % Test CRC 76765707 Copy CRC 76765707 Track not present in AccurateRip database Copy OK

Track 8

Filename N:\Music\Caprica\Caprica (2009, FLAC) - Bear McCreary\08 - A Tauron Sacrifice.wav

Pre-gap length 0:00:03.00

Peak level 95.3 % Track quality 100.0 % Test CRC CC1A9C68 Copy CRC CC1A9C68 Track not present in AccurateRip database Copy OK

Track 9

Filename N:\Music\Caprica\Caprica (2009, FLAC) - Bear McCreary\09 - Amanda Graystone.wav

Pre-gap length 0:00:02.00

Peak level 40.7 % Track quality 100.0 % Test CRC BD4724DF Copy CRC BD4724DF Track not present in AccurateRip database Copy OK

Track 10

Filename N:\Music\Caprica\Caprica (2009, FLAC) - Bear McCreary\10 - Joseph And Daniel.wav

Pre-gap length 0:00:02.00

Peak level 96.6 % Track quality 100.0 % Test CRC 9A04D5BB Copy CRC 9A04D5BB Track not present in AccurateRip database Copy OK

Track 11

Filename N:\Music\Caprica\Caprica (2009, FLAC) - Bear McCreary\11 - Tamara's Heartbeat.wav

Pre-gap length 0:00:02.00

Peak level 99.0 % Track quality 100.0 % Test CRC 8484D9EF Copy CRC 8484D9EF Track not present in AccurateRip database Copy OK

Track 12

Filename N:\Music\Caprica\Caprica (2009, FLAC) - Bear McCreary\12 - Delivering The Message.wav

Pre-gap length 0:00:02.00

Peak level 99.7 % Track quality 99.9 % Test CRC 095AE748 Copy CRC 095AE748 Track not present in AccurateRip database Copy OK

Track 13

Filename N:\Music\Caprica\Caprica (2009, FLAC) - Bear McCreary\13 - Monotheism At The Athena Academy.wav

Pre-gap length 0:00:02.00

Peak level 89.2 % Track quality 100.0 % Test CRC 88FB2890 Copy CRC 88FB2890 Track not present in AccurateRip database Copy OK

Track 14

Filename N:\Music\Caprica\Caprica (2009, FLAC) - Bear McCreary\14 - Children Of Caprica.wav

Pre-gap length 0:00:02.00

Peak level 86.2 % Track quality 100.0 % Test CRC 89712FB7 Copy CRC 89712FB7 Track not present in AccurateRip database Copy OK

Track 15

Filename N:\Music\Caprica\Caprica (2009, FLAC) - Bear McCreary\15 - Irrecoverable Error.wav

Pre-gap length 0:00:02.00

Peak level 99.8 % Track quality 100.0 % Test CRC 2ADF3838 Copy CRC 2ADF3838 Track not present in AccurateRip database Copy OK

Track 16

Filename N:\Music\Caprica\Caprica (2009, FLAC) - Bear McCreary\16 - The Adama Name.wav

Pre-gap length 0:00:02.00

Peak level 48.8 % Track quality 100.0 % Test CRC 5C984792 Copy CRC 5C984792 Track not present in AccurateRip database Copy OK

Track 17

Filename N:\Music\Caprica\Caprica (2009, FLAC) - Bear McCreary\17 - Zoe Awakens.wav

Pre-gap length 0:00:02.00

Peak level 99.9 % Track quality 100.0 % Test CRC 2F8A7516 Copy CRC 2F8A7516 Track not present in AccurateRip database Copy OK

Track 18

Filename N:\Music\Caprica\Caprica (2009, FLAC) - Bear McCreary\18 - Caprica End Credits.wav

Pre-gap length 0:00:02.00

Peak level 99.9 % Track quality 100.0 % Test CRC 7174D4F1 Copy CRC 7174D4F1 Track not present in AccurateRip database Copy OK

None of the tracks are present in the AccurateRip database

No errors occurred

End of status report


Трекер:  [ 08-Июл-2011 13:09 ]

  

Скачать .torrent

Размер .torrent файла 19 KB


Размер: 220 MB
Хэш (hash) релиза: 6a5b9bfe212f387b8fdbae1c3286250039f24612

Торренты, похожие на Каприка Caprica скачать торрент

Форум Название Автор Размер S L Добавлен
Саундтреки к фильмам и мультфильмам (mp3) ·· (Score/TV) Каприка / Caprica. Session1 (Bear McCreary) - 2009, MP3 (tracks), 320 kbps Galfimbul 130644522125 MB 0 0 1496050179

12:29

29-Май-17

Саундтреки к фильмам и мультфильмам (mp3) ·· (Score) Каприка / Caprica (Bear McCreary) - 2009, MP3 (tracks), 320 kbps Galfimbul 130644522125 MB 0 0 1292265841

21:44

13-Дек-10

Еще никто не оставлял запись к записи скачать торрент Каприка Caprica . Будь первым!

!Обратная связь