Скачать через торрент музыку The Imaginarium Of Doctor Parnassus Воображариум доктора Парнаса бесплатно без регистрации torrent

Если у вас наблюдаются проблемы со скриншотами, переходом по ссылками, скачиванием торрентов - проблемы в блокировщике рекламы AdBlock. #хорошегоДня!


Статистика раздачи
Размер:  246 MB   |    Зарегистрирован:  6 лет 2 месяца   |    .torrent скачан:  35 раз   |   
Раздают:  1  
   
Загрузка...
 
Автор Сообщение

Galfimbul

avatar Galfimbul


The Imaginarium Of Doctor Parnassus / Воображариум доктора Парнаса

Жанр: Score
Год выпуска диска: 2009
Аудио кодек: WAVPack
Тип рипа: image+.cue
Битрейт аудио: lossless
Продолжительность: 00:47:44

Трэклист:

01. Once Upon A Time
02. The Imaginarium
03. The Tack
04. Tony's Tale of Woe
05. The Monastery
06. Book & Story
07. Sympathy For The Hanged Man
08. The First To Five Souls
09. Escape From The Pub
10. The River
11. Suicide Attempt
12. Tango Amongst The Lilies
13. Victory In The Lilies
14. Four Through The Mirror
15. The Ladder World
16. We Love Violence
17. Top Of The Wagon
18. We Are The Children Of The World
19. Tony's World Collapses
20. The Devil's Dance
21. Tony's Salvation
22. Parnassus Alone
 
Exact Audio Copy V0.99 prebeta 5 from 4. May 2009

EAC extraction logfile from 30. January 2010, 10:42

Mychael Danna and Jeff Danna / The Imaginarium Of Doctor Parnassus

Used drive : TSSTcorpCD/DVDW SH-S182D Adapter: 3 ID: 0

Read mode : SecureUtilize accurate stream : YesDefeat audio cache : YesMake use of C2 pointers : No

Read offset correction : 6Overread into Lead-In and Lead-Out : NoFill up missing offset samples with silence : YesDelete leading and trailing silent blocks : NoNull samples used in CRC calculations : YesUsed interface : Native Win32 interface for Win NT & 2000

Used output format : User Defined EncoderSelected bitrate : 768 kBit/sQuality : HighAdd ID3 tag : NoCommand line compressor : C:\wavpack-4.50\wavpack.exeAdditional command line options : -w "Artist=%a" -w "Album=%g" -w "Year=%y" -w "Genre=%m" -hh -m -t %s %d

TOC of the extracted CD

Track | Start | Length | Start sector | End sector --------------------------------------------------------- 1 | 0:00.00 | 1:44.67 | 0 | 7866 2 | 1:44.67 | 1:06.42 | 7867 | 12858 3 | 2:51.34 | 2:24.07 | 12859 | 23665 4 | 5:15.41 | 1:39.74 | 23666 | 31164 5 | 6:55.40 | 2:42.04 | 31165 | 43318 6 | 9:37.44 | 2:57.05 | 43319 | 56598 7 | 12:34.49 | 2:16.36 | 56599 | 66834 8 | 14:51.10 | 1:57.13 | 66835 | 75622 9 | 16:48.23 | 2:26.66 | 75623 | 86638 10 | 19:15.14 | 1:45.54 | 86639 | 94567 11 | 21:00.68 | 2:17.63 | 94568 | 104905 12 | 23:18.56 | 2:38.32 | 104906 | 116787 13 | 25:57.13 | 2:50.33 | 116788 | 129570 14 | 28:47.46 | 2:06.26 | 129571 | 139046 15 | 30:53.72 | 1:28.07 | 139047 | 145653 16 | 32:22.04 | 0:43.32 | 145654 | 148910 17 | 33:05.36 | 1:11.29 | 148911 | 154264 18 | 34:16.65 | 0:40.10 | 154265 | 157274 19 | 34:57.00 | 2:17.27 | 157275 | 167576 20 | 37:14.27 | 1:42.00 | 167577 | 175226 21 | 38:56.27 | 3:41.63 | 175227 | 191864 22 | 42:38.15 | 4:49.56 | 191865 | 213595

Range status and errors

Selected range

Filename D:\bula\Параллелепипед\Mychael and Jeff Danna - The Imaginarium of Doctor Parnassus\Mychael Danna and Jeff Danna - The Imaginarium Of Doctor Parnassus.wav

Peak level 98.9 % Range quality 100.0 % Test CRC A18B3F07 Copy CRC A18B3F07 Copy OK

No errors occurred

AccurateRip summary

Track 1 not present in databaseTrack 2 not present in databaseTrack 3 not present in databaseTrack 4 not present in databaseTrack 5 not present in databaseTrack 6 not present in databaseTrack 7 not present in databaseTrack 8 not present in databaseTrack 9 not present in databaseTrack 10 not present in databaseTrack 11 not present in databaseTrack 12 not present in databaseTrack 13 not present in databaseTrack 14 not present in databaseTrack 15 not present in databaseTrack 16 not present in databaseTrack 17 not present in databaseTrack 18 not present in databaseTrack 19 not present in databaseTrack 20 not present in databaseTrack 21 not present in databaseTrack 22 not present in database

None of the tracks are present in the AccurateRip database

End of status report


Трекер:  [ 08-Июл-2011 13:14 ]

  

Скачать .torrent

Размер .torrent файла 20 KB


Размер: 246 MB
Хэш (hash) релиза: 67e17b0c4e66dc63bb17c4df395e8f04aaed664c

Торренты, похожие на The Imaginarium Of Doctor Parnassus Воображариум доктора Парнаса скачать торрент

Форум Название Автор Размер S L Добавлен
Саундтреки к фильмам и мультфильмам (mp3) ·· (Score) Воображариум доктора Парнаса / The Imaginarium of Doctor Parnassus — Mychael Danna, Jeff Danna — 2010, MP3 (tracks), 320 kbps Galfimbul 115773342110 MB 0 0 1496137043

12:37

30-Май-17

Саундтреки к фильмам и мультфильмам (mp3) ·· (Score) Воображариум доктора Парнаса / The Imaginarium of Doctor Parnassus — 2010, MP3 (tracks), 320 kbps Sabin 115671439110 MB 0 0 1292266261

21:51

13-Дек-10

Еще никто не оставлял запись к записи скачать торрент The Imaginarium Of Doctor Parnassus Воображариум доктора Парнаса . Будь первым!

!Обратная связь