Скачать через торрент музыку Good Morning, Vietnam Доброе утро, Вьетнам - 1988, FLAC бесплатно без регистрации torrent

Если у вас наблюдаются проблемы со скриншотами, переходом по ссылками, скачиванием торрентов - проблемы в блокировщике рекламы AdBlock. #хорошегоДня!


Статистика раздачи
Размер:  170 MB   |    Зарегистрирован:  6 лет 2 месяца   |    .torrent скачан:  42 раза   |   
Раздают:  1  
   
Загрузка...
 
Автор Сообщение

Galfimbul

avatar Galfimbul


Good Morning, Vietnam / Доброе утро, Вьетнам


Жанр: Soundtrack
Год выпуска диска: 1988
Производитель диска: USA
Аудио кодек: FLAC
Тип рипа: tracks+.cue
Битрейт аудио: lossless
Продолжительность: 28:56

Трэклист:

01. Martha Reeves & The Vandelllas - Nowhere To Run
02. The Beach Boys - I Get Around
03. Wayne Fontana & The Mindbenders - Game Of Love
04. The Searchers - Sugar And Spice
05. The Castaways - Liar, Liar
06. The Beach Boys - The Warmth Of The Sun
07. James Brown - I Got You (I Feel Good)
08. Them - Baby Please Don't Go
09. Marvelettes - Danger Heartbreak Dead Ahead
10. The Vogues - Five O'Clock World
11. The Rivieras - California Sun
12. Louis Armstrong - What A Wonderful World
Exact Audio Copy V0.99 prebeta 5 from 4. May 2009

EAC extraction logfile from 23. August 2009, 21:19

Various Artists / Good Morning, Vietnam

Used drive : HL-DT-STRW/DVD GCC-4521B Adapter: 1 ID: 0

Read mode : Secure
Utilize accurate stream : Yes
Defeat audio cache : Yes
Make use of C2 pointers : No

Read offset correction : 6
Overread into Lead-In and Lead-Out : No
Fill up missing offset samples with silence : Yes
Delete leading and trailing silent blocks : No
Null samples used in CRC calculations : Yes
Used interface : Installed external ASPI interface
Gap handling : Appended to previous track

Used output format : User Defined Encoder
Selected bitrate : 1024 kBit/s
Quality : High
Add ID3 tag : No
Command line compressor : C:\Program Files\Exact Audio Copy\FLAC\FLAC.EXE
Additional command line options : -6 -V -T "ARTIST=%a" -T "TITLE=%t" -T "ALBUM=%g" -T "DATE=%y" -T "TRACKNUMBER=%n" -T "GENRE=%m" -T "COMMENT=%e" %s -o %d

TOC of the extracted CD

Track | Start | Length | Start sector | End sector
---------------------------------------------------------
1 | 0:00.33 | 2:55.37 | 33 | 13194
2 | 2:55.70 | 2:08.65 | 13195 | 22859
3 | 5:04.60 | 2:04.50 | 22860 | 32209
4 | 7:09.35 | 2:13.63 | 32210 | 42247
5 | 9:23.23 | 1:51.62 | 42248 | 50634
6 | 11:15.10 | 2:48.33 | 50635 | 63267
7 | 14:03.43 | 2:44.65 | 63268 | 75632
8 | 16:48.33 | 2:40.27 | 75633 | 87659
9 | 19:28.60 | 2:28.50 | 87660 | 98809
10 | 21:57.35 | 2:19.23 | 98810 | 109257
11 | 24:16.58 | 2:22.40 | 109258 | 119947
12 | 26:39.23 | 2:17.10 | 119948 | 130232

Track 1

Filename C:\Documents and Settings\Tony Montana\Bureau\01 Martha Reeves & The Vandelllas - Nowhere To Run.wav

Pre-gap length 0:00:02.33

Peak level 78.3 %
Track quality 100.0 %
Test CRC 404C936C
Copy CRC 404C936C
Accurately ripped (confidence 25) [8E133A75]
Copy OK

Track 2

Filename C:\Documents and Settings\Tony Montana\Bureau\02 The Beach Boys - I Get Around.wav

Peak level 73.6 %
Track quality 100.0 %
Test CRC 0ED697B6
Copy CRC 0ED697B6
Accurately ripped (confidence 25) [5DAE8204]
Copy OK

Track 3

Filename C:\Documents and Settings\Tony Montana\Bureau\03 Wayne Fontana & The Mindbenders - Game Of Love.wav

Peak level 71.0 %
Track quality 100.0 %
Test CRC DFA58D1D
Copy CRC DFA58D1D
Accurately ripped (confidence 25) [9541FF07]
Copy OK

Track 4

Filename C:\Documents and Settings\Tony Montana\Bureau\04 The Searchers - Sugar And Spice.wav

Peak level 89.0 %
Track quality 100.0 %
Test CRC B9E639CC
Copy CRC B9E639CC
Accurately ripped (confidence 25) [A7D992A0]
Copy OK

Track 5

Filename C:\Documents and Settings\Tony Montana\Bureau\05 The Castaways - Liar, Liar.wav

Peak level 60.8 %
Track quality 100.0 %
Test CRC 26B2318F
Copy CRC 26B2318F
Accurately ripped (confidence 25) [1311F051]
Copy OK

Track 6

Filename C:\Documents and Settings\Tony Montana\Bureau\06 The Beach Boys - The Warmth Of The Sun.wav

Peak level 58.8 %
Track quality 100.0 %
Test CRC 781C643B
Copy CRC 781C643B
Accurately ripped (confidence 25) [E9806C9E]
Copy OK

Track 7

Filename C:\Documents and Settings\Tony Montana\Bureau\07 James Brown - I Got You (I Feel Good).wav

Peak level 65.4 %
Track quality 100.0 %
Test CRC F9CC83A5
Copy CRC F9CC83A5
Accurately ripped (confidence 25) [CFFF27F4]
Copy OK

Track 8

Filename C:\Documents and Settings\Tony Montana\Bureau\08 Them - Baby Please Don't Go.wav

Peak level 55.7 %
Track quality 100.0 %
Test CRC 32E9AEB6
Copy CRC 32E9AEB6
Accurately ripped (confidence 24) [62402424]
Copy OK

Track 9

Filename C:\Documents and Settings\Tony Montana\Bureau\09 Marvelettes - Danger Heartbreak Dead Ahead.wav

Peak level 68.6 %
Track quality 100.0 %
Test CRC 706E1A54
Copy CRC 706E1A54
Accurately ripped (confidence 25) [4FA6532D]
Copy OK

Track 10

Filename C:\Documents and Settings\Tony Montana\Bureau\10 The Vogues - Five O'Clock World.wav

Peak level 62.5 %
Track quality 100.0 %
Test CRC 95302A94
Copy CRC 95302A94
Accurately ripped (confidence 25) [4646F285]
Copy OK

Track 11

Filename C:\Documents and Settings\Tony Montana\Bureau\11 The Rivieras - California Sun.wav

Peak level 59.1 %
Track quality 100.0 %
Test CRC 64E6CBFA
Copy CRC 64E6CBFA
Accurately ripped (confidence 25) [AD78D97D]
Copy OK

Track 12

Filename C:\Documents and Settings\Tony Montana\Bureau\12 Louis Armstrong - What A Wonderful World.wav

Peak level 58.0 %
Track quality 99.9 %
Test CRC 6B256719
Copy CRC 6B256719
Accurately ripped (confidence 25) [7FE77EE0]
Copy OK

All tracks accurately ripped

No errors occurred

End of status report


Трекер:  [ 08-Июл-2011 13:17 ]

  

Скачать .torrent

Размер .torrent файла 15 KB


Размер: 170 MB
Хэш (hash) релиза: 414ed632559a3828025ef0657d0b7b9b25175827

Торренты, похожие на Good Morning, Vietnam Доброе утро, Вьетнам - 1988, FLAC скачать торрент

Форум Название Автор Размер S L Добавлен
Саундтреки к фильмам и мультфильмам (lossless) ·· (Soundtrack) Доброе утро, Вьетнам / Good Morning, Vietnam (Original Motion Picture Soundtrack) - 1988, FLAC (image+.cue), lossless Galfimbul 200629653191 MB 0 0 1483774213

10:30

7-Янв-17

Еще никто не оставлял запись к записи скачать торрент Good Morning, Vietnam Доброе утро, Вьетнам - 1988, FLAC . Будь первым!

!Обратная связь