Скачать через торрент музыку Angels & Demons Ангелы и Демоны бесплатно без регистрации torrent

Если у вас наблюдаются проблемы со скриншотами, переходом по ссылками, скачиванием торрентов - проблемы в блокировщике рекламы AdBlock. #хорошегоДня!


Статистика раздачи
Размер:  295 MB   |    Зарегистрирован:  6 лет 2 месяца   |    .torrent скачан:  47 раз   |   
Раздают:  1  
   
Загрузка...
 
Автор Сообщение

Galfimbul

avatar Galfimbul


Angels & Demons / Ангелы и Демоны


Жанр: Score
Год выпуска диска: 2009
Производитель диска: США
Аудио кодек: WAVPack
Тип рипа: image + .cue
Битрейт аудио: lossless
Продолжительность: 00:54:24

Трэклист:
1. 160 BPM (06:43)
2. God Particle (05:21)
3. Air (09:09)
4. Fire (06:53)
5. Black Smoke (05:46)
6. Science And Religion (12:27)
7. Immolation (03:39)
8. Election By Adoration (02:13)
9. 503 (02:14)
 
Exact Audio Copy V0.99 prebeta 4 from 23. January 2008

EAC extraction logfile from 14. May 2009, 16:22

Hans Zimmer / Angels & Demons

Used drive : LITE-ON DVDRW SHW-1635S Adapter: 1 ID: 0

Read mode : SecureUtilize accurate stream : YesDefeat audio cache : YesMake use of C2 pointers : No

Read offset correction : 6Overread into Lead-In and Lead-Out : NoFill up missing offset samples with silence : YesDelete leading and trailing silent blocks : NoNull samples used in CRC calculations : YesUsed interface : Installed external ASPI interface

Used output format : Internal WAV RoutinesSample format : 44.100 Hz; 16 Bit; StereoUse compression offset : 6

TOC of the extracted CD

Track | Start | Length | Start sector | End sector --------------------------------------------------------- 1 | 0:00.00 | 6:42.39 | 0 | 30188 2 | 6:42.39 | 5:20.54 | 30189 | 54242 3 | 12:03.18 | 9:09.11 | 54243 | 95428 4 | 21:12.29 | 6:52.46 | 95429 | 126374 5 | 28:05.00 | 5:45.63 | 126375 | 152312 6 | 33:50.63 | 12:27.15 | 152313 | 208352 7 | 46:18.03 | 3:39.21 | 208353 | 224798 8 | 49:57.24 | 2:12.38 | 224799 | 234736 9 | 52:09.62 | 2:14.28 | 234737 | 244814

Range status and errors

Selected range

Filename E:\Hans Zimmer - Angels & Demons\Angels & Demons.wav

Peak level 100.0 % Range quality 99.9 % Test CRC F6FE4222 Copy CRC F6FE4222 Copy OK

No errors occurred

End of status report


Трекер:  [ 08-Июл-2011 13:17 ]

  

Скачать .torrent

Размер .torrent файла 12 KB


Размер: 295 MB
Хэш (hash) релиза: b8e8a9cb3390cba4066e21fac5f5d00d26a4b7ac

Торренты, похожие на Angels & Demons Ангелы и Демоны скачать торрент

Форум Название Автор Размер S L Добавлен
Саундтреки к фильмам и мультфильмам (mp3) ·· (Score Suite) Angels & Demons / Ангелы и Демоны (Hans Zimmer) - 2009, MP3 (tracks), 320 kbps Galfimbul 7670600573 MB 2 0 1292266230

21:50

13-Дек-10

Саундтреки к фильмам и мультфильмам (mp3) ·· (Score) Ангелы и Демоны / Angels & Demons (by Hans Zimmer) - 2009, MP3, 320 kbps AqvaGen 135488835129 MB 2 0 1292265293

21:34

13-Дек-10

Еще никто не оставлял запись к записи скачать торрент Angels & Demons Ангелы и Демоны . Будь первым!

!Обратная связь