Скачать через торрент музыку Angelo Badalamenti - The Straight Story - 1999, FLAC бесплатно без регистрации torrent

Если у вас наблюдаются проблемы со скриншотами, переходом по ссылками, скачиванием торрентов - проблемы в блокировщике рекламы AdBlock. #хорошегоДня!


Статистика раздачи
Размер:  225 MB   |    Зарегистрирован:  6 лет 2 месяца   |    .torrent скачан:  50 раз   |   
Раздают:  1  
   
Загрузка...
 
Автор Сообщение

Galfimbul

avatar Galfimbul


Angelo Badalamenti - The Straight Story

Жанр: Score
Год выпуска диска: 1999
Аудио кодек: FLAC
Тип рипа: tracks+.cue
Битрейт аудио: lossless
Трэклист:
01. Laurens, Iowa (02:46)
02. Rose's Theme (02:56)
03. Laurens Walking (04:12)
04. Sprinkler (02:56)
05. Alvin's Theme (04:24)
06. Final Miles (04:06)
07. Country Waltz (02:46)
08. Rose's Theme (Variation) (03:07)
09. Country Theme (03:38)
10. Crystal (04:07)
11. Nostalgia (06:51)
12. Farmland Tour (03:09)
13. Montage (07:25)
Доп. информация:
 
EAC extraction logfile from 28. May 2007, 6:11 for CDBadalamenti, Angelo / Straight Story, The

Used drive : TSSTcorpCD/DVDW SH-S182D Adapter: 1 ID: 0Read mode : Secure with NO C2, accurate stream, disable cacheRead offset correction : 6Overread into Lead-In and Lead-Out : No

Used output format : C:\Program Files\Exact Audio Copy\flac.exe (User Defined Encoder) 192 kBit/s Additional command line options : -8 -A tukey(0.25) -A gauss(0.1875) -b 4096 -V -T "artist=%a" -T "title=%t" -T "album=%g" -T "date=%y" -T "tracknumber=%n" -T "genre=%m" %s --sector-align

Other options : Fill up missing offset samples with silence : Yes Delete leading and trailing silent blocks : No Installed external ASPI interface

Track 1 Filename F:\MP3\Badalamenti, Angelo - 1999 Straight Story, The (FLAC)\01 - Badalamenti, Angelo - Laurens, Iowa.wav

Pre-gap length 0:00:02.00

Peak level 89.2 % Track quality 100.0 % Test CRC B01B7841 Copy CRC B01B7841 Copy OK

Track 2 Filename F:\MP3\Badalamenti, Angelo - 1999 Straight Story, The (FLAC)\02 - Badalamenti, Angelo - Rose's Theme.wav

Peak level 97.1 % Track quality 100.0 % Test CRC D4EF940A Copy CRC D4EF940A Copy OK

Track 3 Filename F:\MP3\Badalamenti, Angelo - 1999 Straight Story, The (FLAC)\03 - Badalamenti, Angelo - Laurens Walking.wav

Peak level 88.5 % Track quality 100.0 % Test CRC 0A43BA08 Copy CRC 0A43BA08 Copy OK

Track 4 Filename F:\MP3\Badalamenti, Angelo - 1999 Straight Story, The (FLAC)\04 - Badalamenti, Angelo - Sprinkler.wav

Peak level 97.3 % Track quality 100.0 % Test CRC 746A36AA Copy CRC 746A36AA Copy OK

Track 5 Filename F:\MP3\Badalamenti, Angelo - 1999 Straight Story, The (FLAC)\05 - Badalamenti, Angelo - Alvin's Theme.wav

Peak level 73.6 % Track quality 100.0 % Test CRC 3D628F1E Copy CRC 3D628F1E Copy OK

Track 6 Filename F:\MP3\Badalamenti, Angelo - 1999 Straight Story, The (FLAC)\06 - Badalamenti, Angelo - Final Miles.wav

Peak level 48.6 % Track quality 100.0 % Test CRC 486EBFE5 Copy CRC 486EBFE5 Copy OK

Track 7 Filename F:\MP3\Badalamenti, Angelo - 1999 Straight Story, The (FLAC)\07 - Badalamenti, Angelo - Country Waltz.wav

Peak level 95.6 % Track quality 99.9 % Test CRC 70308E5E Copy CRC 70308E5E Copy OK

Track 8 Filename F:\MP3\Badalamenti, Angelo - 1999 Straight Story, The (FLAC)\08 - Badalamenti, Angelo - Rose's Theme (Variation).wav

Peak level 47.0 % Track quality 100.0 % Test CRC F8B7E824 Copy CRC F8B7E824 Copy OK

Track 9 Filename F:\MP3\Badalamenti, Angelo - 1999 Straight Story, The (FLAC)\09 - Badalamenti, Angelo - Country Theme.wav

Peak level 94.3 % Track quality 100.0 % Test CRC B864D89B Copy CRC B864D89B Copy OK

Track 10 Filename F:\MP3\Badalamenti, Angelo - 1999 Straight Story, The (FLAC)\10 - Badalamenti, Angelo - Crystal.wav

Peak level 41.9 % Track quality 100.0 % Test CRC CEA91482 Copy CRC CEA91482 Copy OK

Track 11 Filename F:\MP3\Badalamenti, Angelo - 1999 Straight Story, The (FLAC)\11 - Badalamenti, Angelo - Nostalgia.wav

Peak level 29.4 % Track quality 100.0 % Test CRC D3C89A5A Copy CRC D3C89A5A Copy OK

Track 12 Filename F:\MP3\Badalamenti, Angelo - 1999 Straight Story, The (FLAC)\12 - Badalamenti, Angelo - Farmland Tour.wav

Peak level 96.5 % Track quality 100.0 % Test CRC 58DDDFF4 Copy CRC 58DDDFF4 Copy OK

Track 13 Filename F:\MP3\Badalamenti, Angelo - 1999 Straight Story, The (FLAC)\13 - Badalamenti, Angelo - Montage.wav

Peak level 94.1 % Track quality 100.0 % Test CRC B6378349 Copy CRC B6378349 Copy OK

No errors occured

End of status report
Альтернатива предыдущему потенциально безродному релизу (в котором отсутствовал лог).

Трекер:  [ 08-Июл-2011 13:17 ]

  

Скачать .torrent

Размер .torrent файла 19 KB


Размер: 225 MB
Хэш (hash) релиза: 16a6310be7a98469da53dce06f1246f430df4810

Еще никто не оставлял запись к записи скачать торрент Angelo Badalamenti - The Straight Story - 1999, FLAC . Будь первым!

!Обратная связь