Скачать через торрент музыку Красная скрипка Le Violon Rouge бесплатно без регистрации torrent

Если у вас наблюдаются проблемы со скриншотами, переходом по ссылками, скачиванием торрентов - проблемы в блокировщике рекламы AdBlock. #хорошегоДня!


Статистика раздачи
Размер:  273 MB   |    Зарегистрирован:  6 лет 2 месяца   |    .torrent скачан:  38 раз   |   
Раздают:  1  
   
Загрузка...
 
Автор Сообщение

Galfimbul

avatar Galfimbul


The Red ViolinJohn Corigliano

Жанр: Score
Год выпуска диска: 1999
Производитель диска: USA
Аудио кодек: FLAC
Тип рипа: tracks+.cue
Битрейт аудио: lossless
Продолжительность: 1:06:09
01. Anna's Theme 2:50[i]

••02.
Main Title 2:46[color=#f5f5f5]••03.[/color] Death of Anna 1:47[color=#f5f5f5]••04.[/color] Birth of the Red Violin 3:05[color=#f5f5f5]••05.[/color] The Red Violin 1:34[i]

••06.
The Monastery 1:07[color=#f5f5f5]••07.[/color] Kaspar's Audition; Journey to Vienna 2:40[color=#f5f5f5]••08.[/color] Etudes; Death of Kaspar 2:48[i]

••09.
The Gypsies; Journey Across Europe 2:07[color=#f5f5f5]••10.[/color] Pope's Gypsy Cadenza 1:37[color=#f5f5f5]••11.[/color] Coitus Musicalis; Victoria's Departure 4:40[color=#f5f5f5]••12.[/color] Pope's Concert 1:23[color=#f5f5f5]••13.[/color] Pope's Betrayal 3:01[i]

••14.
Journey to China 4:10[color=#f5f5f5]••15.[/color] People's Revolution; Death of Chou Yuan 3:18[i]

••16.
Morritz Discovers the Red Violin 3:38[color=#f5f5f5]••17.[/color] Morritz's Theme 1:55[color=#f5f5f5]••18.[/color] The Theft 2:12[color=#f5f5f5]••19.[/color] End Titles 1:55

20.
The Red Violin: Chaconne for Violin and Orchestra 17:37
 
Exact Audio Copy V0.99 prebeta 4 from 23. January 2008

EAC extraction logfile from 23. April 2008, 18:37

John Corigliano / The Red Violin

Used drive : PLEXTOR DVDR PX-760A Adapter: 5 ID: 0

Read mode : SecureUtilize accurate stream : YesDefeat audio cache : YesMake use of C2 pointers : No

Read offset correction : 30Overread into Lead-In and Lead-Out : NoFill up missing offset samples with silence : YesDelete leading and trailing silent blocks : NoNull samples used in CRC calculations : YesUsed interface : Installed external ASPI interfaceGap handling : Appended to previous track

Used output format : User Defined EncoderSelected bitrate : 192 kBit/sQuality : HighAdd ID3 tag : NoCommand line compressor : C:\Program Files\Exact Audio Copy\Flac\flac.exeAdditional command line options : -V -8 -T "artist=%a" -T "title=%t" -T "album=%g" -T "date=%y" -T "tracknumber=%n" -T "genre=%m" %s

TOC of the extracted CD

Track | Start | Length | Start sector | End sector --------------------------------------------------------- 1 | 0:00.00 | 2:50.25 | 0 | 12774 2 | 2:50.25 | 2:45.52 | 12775 | 25201 3 | 5:36.02 | 1:46.58 | 25202 | 33209 4 | 7:22.60 | 3:05.05 | 33210 | 47089 5 | 10:27.65 | 1:34.15 | 47090 | 54154 6 | 12:02.05 | 1:06.62 | 54155 | 59166 7 | 13:08.67 | 2:40.30 | 59167 | 71196 8 | 15:49.22 | 2:48.25 | 71197 | 83821 9 | 18:37.47 | 2:06.70 | 83822 | 93341 10 | 20:44.42 | 1:37.10 | 93342 | 100626 11 | 22:21.52 | 4:40.18 | 100627 | 121644 12 | 27:01.70 | 1:22.50 | 121645 | 127844 13 | 28:24.45 | 3:00.62 | 127845 | 141406 14 | 31:25.32 | 4:09.73 | 141407 | 160154 15 | 35:35.30 | 3:17.57 | 160155 | 174986 16 | 38:53.12 | 3:37.43 | 174987 | 191304 17 | 42:30.55 | 1:54.50 | 191305 | 199904 18 | 44:25.30 | 2:12.00 | 199905 | 209804 19 | 46:37.30 | 1:55.05 | 209805 | 218434 20 | 48:32.35 | 17:37.00 | 218435 | 297709

Track 1

Filename G:\Waffles-FM\The Red Violin Soundtrack\01 - Anna's Theme.wav

Pre-gap length 0:00:02.00

Peak level 39.3 % Track quality 99.9 % Test CRC 6D3B6B0F Copy CRC 6D3B6B0F Accurately ripped (confidence 3) [197874C0] Copy OK

Track 2

Filename G:\Waffles-FM\The Red Violin Soundtrack\02 - I. Cremona - Main Title.wav

Peak level 47.1 % Track quality 99.9 % Test CRC C8EBB347 Copy CRC C8EBB347 Accurately ripped (confidence 3) [40788DB9] Copy OK

Track 3

Filename G:\Waffles-FM\The Red Violin Soundtrack\03 - I. Cremona - Death of Anna.wav

Peak level 71.0 % Track quality 100.0 % Test CRC 64192402 Copy CRC 64192402 Accurately ripped (confidence 3) [0CFFED5A] Copy OK

Track 4

Filename G:\Waffles-FM\The Red Violin Soundtrack\04 - I. Cremona - Birth of the Red Violin.wav

Peak level 63.0 % Track quality 100.0 % Test CRC 8E838782 Copy CRC 8E838782 Accurately ripped (confidence 2) [73ABF251] Copy OK

Track 5

Filename G:\Waffles-FM\The Red Violin Soundtrack\05 - I. Cremona - The Red Violin.wav

Peak level 46.8 % Track quality 100.0 % Test CRC 0E928A2E Copy CRC 0E928A2E Accurately ripped (confidence 3) [8C23ADB8] Copy OK

Track 6

Filename G:\Waffles-FM\The Red Violin Soundtrack\06 - II. Vienna - The Monastery.wav

Peak level 31.5 % Track quality 100.0 % Test CRC BC80725B Copy CRC BC80725B Accurately ripped (confidence 3) [6A6E83CE] Copy OK

Track 7

Filename G:\Waffles-FM\The Red Violin Soundtrack\07 - II. Vienna - Kaspar's Audition- Journey to Vienna.wav

Peak level 43.5 % Track quality 99.9 % Test CRC 028BF791 Copy CRC 028BF791 Accurately ripped (confidence 2) [3F301949] Copy OK

Track 8

Filename G:\Waffles-FM\The Red Violin Soundtrack\08 - II. Vienna - Etudes; Death of Kaspar.wav

Peak level 41.3 % Track quality 99.9 % Test CRC F9E755ED Copy CRC F9E755ED Accurately ripped (confidence 2) [6B65468A] Copy OK

Track 9

Filename G:\Waffles-FM\The Red Violin Soundtrack\09 - III. Oxford - The Gypsies; Journey Across Europe.wav

Peak level 53.2 % Track quality 100.0 % Test CRC 4F62A1AA Copy CRC 4F62A1AA Accurately ripped (confidence 3) [2BB86998] Copy OK

Track 10

Filename G:\Waffles-FM\The Red Violin Soundtrack\10 - III. Oxford - Pope's Gypsy Cadenza.wav

Peak level 38.9 % Track quality 100.0 % Test CRC 7715F5BF Copy CRC 7715F5BF Accurately ripped (confidence 2) [FA2175DF] Copy OK

Track 11

Filename G:\Waffles-FM\The Red Violin Soundtrack\11 - III. Oxford - Coitus Musicalis; Victoria's Departure.wav

Peak level 37.6 % Track quality 99.9 % Test CRC 1E961588 Copy CRC 1E961588 Accurately ripped (confidence 2) [BB3AD546] Copy OK

Track 12

Filename G:\Waffles-FM\The Red Violin Soundtrack\12 - III. Oxford - Pope's Concert.wav

Peak level 53.8 % Track quality 99.8 % Test CRC B83554E3 Copy CRC B83554E3 Accurately ripped (confidence 2) [48BB5241] Copy OK

Track 13

Filename G:\Waffles-FM\The Red Violin Soundtrack\13 - III. Oxford - Pope's Betrayal.wav

Peak level 39.8 % Track quality 100.0 % Test CRC 2F6F8BAF Copy CRC 2F6F8BAF Accurately ripped (confidence 2) [DA2FA03A] Copy OK

Track 14

Filename G:\Waffles-FM\The Red Violin Soundtrack\14 - IV. Shanghai - Journey to China.wav

Peak level 54.0 % Track quality 100.0 % Test CRC F0B908FE Copy CRC F0B908FE Accurately ripped (confidence 2) [B4278A59] Copy OK

Track 15

Filename G:\Waffles-FM\The Red Violin Soundtrack\15 - IV. Shanghai - People's Revolution; Death of Chou Yuan.wav

Peak level 39.1 % Track quality 100.0 % Test CRC A524D427 Copy CRC A524D427 Accurately ripped (confidence 2) [2C3203C7] Copy OK

Track 16

Filename G:\Waffles-FM\The Red Violin Soundtrack\16 - V. Montreal - Morritz Discovers the Red Violin.wav

Peak level 50.1 % Track quality 100.0 % Test CRC E846E74A Copy CRC E846E74A Accurately ripped (confidence 2) [A5727364] Copy OK

Track 17

Filename G:\Waffles-FM\The Red Violin Soundtrack\17 - V. Montreal - Morritz's Theme.wav

Peak level 28.7 % Track quality 100.0 % Test CRC 8C525C0F Copy CRC 8C525C0F Accurately ripped (confidence 3) [4A63C248] Copy OK

Track 18

Filename G:\Waffles-FM\The Red Violin Soundtrack\18 - V. Montreal - The Theft.wav

Peak level 74.9 % Track quality 100.0 % Test CRC 6FFBEEF1 Copy CRC 6FFBEEF1 Accurately ripped (confidence 2) [70B89BE5] Copy OK

Track 19

Filename G:\Waffles-FM\The Red Violin Soundtrack\19 - V. Montreal - End Titles.wav

Peak level 9.8 % Track quality 100.0 % Test CRC 77C1CF63 Copy CRC 77C1CF63 Accurately ripped (confidence 3) [5F612993] Copy OK

Track 20

Filename G:\Waffles-FM\The Red Violin Soundtrack\20 - 'The Red Violin'- Chaconne for Violin and Orchestra.wav

Peak level 98.8 % Track quality 100.0 % Test CRC E2B89210 Copy CRC E2B89210 Accurately ripped (confidence 3) [BA093342] Copy OK

All tracks accurately ripped

No errors occurred

End of status report


Трекер:  [ 08-Июл-2011 12:36 ]

  

Скачать .torrent

Размер .torrent файла 17 KB


Размер: 273 MB
Хэш (hash) релиза: 2fc23ccf553d8a21c2b5d4fac25fee9924bc689c

Еще никто не оставлял запись к записи скачать торрент Красная скрипка Le Violon Rouge . Будь первым!

!Обратная связь