Скачать через торрент музыку Steve Jablonsky - Transformers: Revenge of the Fallen - 2009, FLAC бесплатно без регистрации torrent

Если у вас наблюдаются проблемы со скриншотами, переходом по ссылками, скачиванием торрентов - проблемы в блокировщике рекламы AdBlock. #хорошегоДня!


Статистика раздачи
Размер:  223 MB   |    Зарегистрирован:  6 лет 2 месяца   |    .torrent скачан:  69 раз   |   
Раздают:  1  
   
Загрузка...
 
Автор Сообщение

Galfimbul

avatar Galfimbul


Steve Jablonsky
Revenge of the Fallen



Жанр: Score
Год выпуска диска: 2009
Производитель диска: USA
Аудио кодек: FLAC
Тип рипа: tracks+.cue
Битрейт аудио: lossless
Продолжительность: 44:03
Трэклист:

01. Prime (2:15)
02. Einstein's Wrong (3:35)
03. Nest (feat. Linkin Park) (2:10)
04. The Shard (2:42)
05. The Fallen (4:03)
06. Infinite White (3:58)
07. Heed Our Warning (4:28)
08. The Fallen's Arrival (3:48)
09. Tomb of the Primes (2:47)
10. Forest battle (2:05)
11. Precious Cargo (1:38)
12. Matrix of Leadership (3:50)
13. I Claim Your Sun (3:06)
14. I Rise, You Fall (3:36)

Доп. информация:
 
Exact Audio Copy V0.99 prebeta 5 from 4. May 2009

EAC extraction logfile from 27. June 2009, 2:22

Steve Jablonsky / Transformers: Revenge Of The Fallen (The Score)

Used drive : TSSTcorpCDDVDW SE-S224Q Adapter: 3 ID: 0

Read mode : SecureUtilize accurate stream : YesDefeat audio cache : YesMake use of C2 pointers : No

Read offset correction : 6Overread into Lead-In and Lead-Out : NoFill up missing offset samples with silence : YesDelete leading and trailing silent blocks : NoNull samples used in CRC calculations : YesUsed interface : Native Win32 interface for Win NT & 2000Gap handling : Appended to previous track

Used output format : User Defined EncoderSelected bitrate : 128 kBit/sQuality : HighAdd ID3 tag : NoCommand line compressor : D:\Programme\Exact Audio Copy\Flac\flac.exeAdditional command line options : -8 -V -T "artist=%a" -T "title=%t" -T "album=%g" -T "date=%y" -T "tracknumber=%n" -T "genre=%m" %s

TOC of the extracted CD

Track | Start | Length | Start sector | End sector --------------------------------------------------------- 1 | 0:00.00 | 2:14.55 | 0 | 10104 2 | 2:14.55 | 3:35.27 | 10105 | 26256 3 | 5:50.07 | 2:10.33 | 26257 | 36039 4 | 8:00.40 | 2:42.27 | 36040 | 48216 5 | 10:42.67 | 4:03.08 | 48217 | 66449 6 | 14:46.00 | 3:58.25 | 66450 | 84324 7 | 18:44.25 | 4:27.62 | 84325 | 104411 8 | 23:12.12 | 3:47.73 | 104412 | 121509 9 | 27:00.10 | 2:47.12 | 121510 | 134046 10 | 29:47.22 | 2:04.68 | 134047 | 143414 11 | 31:52.15 | 1:38.30 | 143415 | 150794 12 | 33:30.45 | 3:50.00 | 150795 | 168044 13 | 37:20.45 | 3:06.37 | 168045 | 182031 14 | 40:27.07 | 3:35.68 | 182032 | 198224

Track 1

Filename D:\Rips\01 - Prime.wav

Pre-gap length 0:00:02.00

Peak level 97.6 % Track quality 100.0 % Test CRC F27BEEA0 Copy CRC F27BEEA0 Track not present in AccurateRip database Copy OK

Track 2

Filename D:\Rips\02 - Einstein's Wrong.wav

Peak level 97.6 % Track quality 100.0 % Test CRC 2C5FBB0E Copy CRC 2C5FBB0E Track not present in AccurateRip database Copy OK

Track 3

Filename D:\Rips\03 - Nest (feat. Linkin Park).wav

Peak level 97.6 % Track quality 100.0 % Test CRC 8C79FBD5 Copy CRC 8C79FBD5 Track not present in AccurateRip database Copy OK

Track 4

Filename D:\Rips\04 - The Shard.wav

Pre-gap length 0:00:01.37

Peak level 97.6 % Track quality 99.9 % Test CRC DA54B27C Copy CRC DA54B27C Track not present in AccurateRip database Copy OK

Track 5

Filename D:\Rips\05 - The Fallen.wav

Peak level 97.6 % Track quality 100.0 % Test CRC 182A082D Copy CRC 182A082D Track not present in AccurateRip database Copy OK

Track 6

Filename D:\Rips\06 - Infinite White.wav

Peak level 97.6 % Track quality 100.0 % Test CRC 2573F0DF Copy CRC 2573F0DF Track not present in AccurateRip database Copy OK

Track 7

Filename D:\Rips\07 - Heed Our Warning.wav

Peak level 97.6 % Track quality 100.0 % Test CRC FC9EA6EA Copy CRC FC9EA6EA Track not present in AccurateRip database Copy OK

Track 8

Filename D:\Rips\08 - The Fallen's Arrival.wav

Pre-gap length 0:00:00.66

Peak level 97.6 % Track quality 100.0 % Test CRC 10B61A6F Copy CRC 10B61A6F Track not present in AccurateRip database Copy OK

Track 9

Filename D:\Rips\09 - Tomb of the Primes.wav

Pre-gap length 0:00:00.19

Peak level 97.6 % Track quality 100.0 % Test CRC 10BE990A Copy CRC 10BE990A Track not present in AccurateRip database Copy OK

Track 10

Filename D:\Rips\10 - Forest battle.wav

Pre-gap length 0:00:00.02

Peak level 97.6 % Track quality 100.0 % Test CRC 3CDB3588 Copy CRC 3CDB3588 Track not present in AccurateRip database Copy OK

Track 11

Filename D:\Rips\11 - Precious Cargo.wav

Peak level 97.6 % Track quality 100.0 % Test CRC 188685CD Copy CRC 188685CD Track not present in AccurateRip database Copy OK

Track 12

Filename D:\Rips\12 - Matrix of Leadership.wav

Peak level 97.6 % Track quality 100.0 % Test CRC 1CEE1993 Copy CRC 1CEE1993 Track not present in AccurateRip database Copy OK

Track 13

Filename D:\Rips\13 - I Claim Your Sun.wav

Peak level 97.6 % Track quality 100.0 % Test CRC 274E6602 Copy CRC 274E6602 Track not present in AccurateRip database Copy OK

Track 14

Filename D:\Rips\14 - I Rise, You Fall.wav

Peak level 97.6 % Track quality 100.0 % Test CRC 67F8530E Copy CRC 67F8530E Track not present in AccurateRip database Copy OK

None of the tracks are present in the AccurateRip database

No errors occurred

End of status report


Трекер:  [ 08-Июл-2011 12:39 ]

  

Скачать .torrent

Размер .torrent файла 19 KB


Размер: 223 MB
Хэш (hash) релиза: c04805d96e74dd7c7bdc719f27bd1fb8115a9cae

Еще никто не оставлял запись к записи скачать торрент Steve Jablonsky - Transformers: Revenge of the Fallen - 2009, FLAC . Будь первым!

!Обратная связь