Скачать через торрент музыку Nino Rota - Greatest hits - 1997, APE бесплатно без регистрации torrent

Если у вас наблюдаются проблемы со скриншотами, переходом по ссылками, скачиванием торрентов - проблемы в блокировщике рекламы AdBlock. #хорошегоДня!


Статистика раздачи
Размер:  270 MB   |    Зарегистрирован:  6 лет 2 месяца   |    .torrent скачан:  37 раз   |   
Раздают:  1  
   
Загрузка...
 
Автор Сообщение

Galfimbul

avatar Galfimbul


Nino Rota - Greatest hits

Жанр: soundtrack
Год выпуска диска: 1997
Производитель диска: Italy
Аудио кодек: APE
Тип рипа: image+.cue
Битрейт аудио: lossless
Продолжительность: 50:10
Трэклист:
01. La Dolce Vita (4:21)
02. Il Padrino II (3:46)
03. Amarcord (2:39)
04. Guerra E Pace - Valzer Di Natascia (1:56)
05. Rocco E I Suoi Fratelli (2:29)
06. Lo Sceicco Bianco (1:47)
07. Romeo E Giulietta (2:27)
08. La Strada (3:39)
09. Il Gattopardo - Valzer Del Commiato (4:04)
10. Il Gattopardo - Valzer Brillante (G. Verdi-Trasc.Ne N. Rota) (2:47)
11. Boccaccio 70 - Bevete Piщ Latte (3:09)
12. Il Padrino - Valzer (4:29)
13. Il Padrino - Tema D'amore (2:59)
14. I Vitelloni (1:51)
15. Fortunella (2:01)
16. Le Notti Bianche (4:26)
17. 8 1/2 (2:24)
Доп. информация: Rudi Brown and his orchestra

3 - Pino Calvi, piano & orchestra
7 - Bruno Battisi D'Amario, guitar & orchestra
Exact Audio Copy V0.99 prebeta 1 from 25. May 2007

Отчёт EAC об извлечении, выполненном 25. января 2009, 22:26

Nino Rota / Greatest Hits

Дисковод: HL-DT-STDVDRAM GSA-T10N Adapter: 0 ID: 1

Режим чтения : Достоверность
Использование точного потока : Да
Отключение кэша аудио : Да
Использование указателей C2 : Нет

Коррекция смещения при чтении : 667
Способность читать области Lead-in и Lead-out : Нет
Заполнение пропущенных сэмплов тишиной : Да
Удаление блоков с тишиной в начале и конце : Нет
Интерфейс : Встроенный Win32-интерфейс для Win NT/2000

Выходной формат : Внутренние WAV-операции
Формат сэмплов : 44.100 Гц; 16 бит; стерео

TOC извлечённого CD

Трек | Старт | Длительность | Начальный сектор | Конечный сектор
---------------------------------------------------------------------
1 | 0:00.32 | 4:21.25 | 32 | 19631
2 | 4:21.57 | 3:45.50 | 19632 | 36556
3 | 8:07.32 | 2:39.00 | 36557 | 48481
4 | 10:46.32 | 1:56.00 | 48482 | 57181
5 | 12:42.32 | 2:29.25 | 57182 | 68381
6 | 15:11.57 | 1:46.50 | 68382 | 76381
7 | 16:58.32 | 2:27.00 | 76382 | 87406
8 | 19:25.32 | 3:39.00 | 87407 | 103831
9 | 23:04.32 | 4:04.00 | 103832 | 122131
10 | 27:08.32 | 2:47.00 | 122132 | 134656
11 | 29:55.32 | 3:09.00 | 134657 | 148831
12 | 33:04.32 | 4:29.00 | 148832 | 169006
13 | 37:33.32 | 2:59.00 | 169007 | 182431
14 | 40:32.32 | 1:51.00 | 182432 | 190756
15 | 42:23.32 | 2:01.00 | 190757 | 199831
16 | 44:24.32 | 4:25.50 | 199832 | 219756
17 | 48:50.07 | 2:24.25 | 219757 | 230581

Характеристики диапазона извлечения и сообщения об ошибках

Выбранный диапазон

Имя файла C:\Documents and Settings\user\Мои документы\nino_rota_[http://рутраскер]\Nino Rota - Greatest Hits.wav

Пиковый уровень 91.2 %
Качество диапазона 100.0 %
CRC копии 034503CF
Копирование... OK

AccurateRip: сводка

Трек 1 точное извлечение (доверие 1) [9A8CAC66]
Трек 2 точное извлечение (доверие 1) [80695588]
Трек 3 точное извлечение (доверие 1) [E722A0D0]
Трек 4 точное извлечение (доверие 1) [2E495967]
Трек 5 точное извлечение (доверие 1) [DDF35829]
Трек 6 точное извлечение (доверие 1) [9A13865C]
Трек 7 точное извлечение (доверие 1) [2ADA3798]
Трек 8 точное извлечение (доверие 1) [3F17FF2E]
Трек 9 точное извлечение (доверие 1) [A0EC0EDB]
Трек 10 точное извлечение (доверие 1) [8DB095A4]
Трек 11 точное извлечение (доверие 1) [238DFB44]
Трек 12 точное извлечение (доверие 1) [C3BA0748]
Трек 13 точное извлечение (доверие 1) [72E92815]
Трек 14 точное извлечение (доверие 1) [D949A910]
Трек 15 точное извлечение (доверие 1) [B2F92F17]
Трек 16 точное извлечение (доверие 1) [40DC57EB]
Трек 17 точное извлечение (доверие 1) [F91ECFB9]

Ошибок не произошло

Конец отчёта


Трекер:  [ 08-Июл-2011 12:40 ]

  

Скачать .torrent

Размер .torrent файла 11 KB


Размер: 270 MB
Хэш (hash) релиза: 4a1dd2bf0083ab97481e535730a70c5e2d928394

Еще никто не оставлял запись к записи скачать торрент Nino Rota - Greatest hits - 1997, APE . Будь первым!

!Обратная связь