Скачать через торрент музыку Звездный путь Star Trek: The Deluxe Edition бесплатно без регистрации torrent

Если у вас наблюдаются проблемы со скриншотами, переходом по ссылками, скачиванием торрентов - проблемы в блокировщике рекламы AdBlock. #хорошегоДня!


Статистика раздачи
Размер:  510 MB   |    Зарегистрирован:  6 лет 2 месяца   |    .torrent скачан:  45 раз   |   
Раздают:  1  
   
Загрузка...
 
Автор Сообщение

Galfimbul

avatar Galfimbul


Звездный путь / Star Trek: The Deluxe Edition
Music by Michael Giacchino


Жанр: Score | Год выпуска диска: 2010 | Производитель диска: Varese Sarabande
Аудио кодек: FLAC | Тип рипа: tracks+.cue | Битрейт аудио: lossless
Общая продолжительность: 01:39:10
Источник: WhatCD

CD1. Продолжительность: 00:55:26

01. Star Trek [02:28]
02. Narada Boom [02:48]
03. Hack To The Future [01:24]
04. Nailin' The Kelvin [02:09]
05. Labor Of Love [02:44]
06. Main Title [00:46]
07. Head To Heart Conversation [01:10]
08. One Proud Mother [01:37]
09. Hella Bar Talk [01:56]
10. The Flask At Hand [00:27]
11. Welcome Back, Spock [01:09]
12. Vulcan Gets A Good Drilling [01:30]
13. Hangar Management [02:47]
14. Enterprising Young Men [03:05]
15. Flying Into A Trphlthdl [03:22]
16. Nero Sighted [03:23]
17. Matter? I Barely Know Her! [02:07]
18. Jehosafats [03:02]
19. Chutes And Matter [03:29]
20. A Whole In My Hearth [00:56]
21. I've Fallen And I Can't Beam Up! [01:51]
22. Spock Goes Spelunking [01:29]
23. An Endangered Species [03:09]
24. Galaxy's Worst Sushi Bar [02:15]
25. Mandatory Leave Of Absence [01:18]
26. Dad's Route To School [00:35]
27. Frozen Dinner [01:30]
28. You Snowin' Me? [00:49]

CD2. Продолжительность: 00:43:44

01. Nice To Meld You [03:13]
02. Hail To The Chief [00:50]
03. I Gotta Beam Me [02:02]
04. Scotty's Tanked [01:39]
05. What's With You? [02:12]
06. Either Way, Someone's Going Down [02:42]
07. Trekking Down The Narada [02:32]
08. Run And Shoot Offense [02:02]
09. Does It Still McFly? [02:02]
10. Nero Death Experience [05:38]
11. Nero Fiddles, Narada Burns [02:28]
12. Black Holes Have A Lot Of Pull [00:55]
13. Back From Black [00:58]
14. That New Car Smell [04:45]
15. To Bodly Go [00:26]
16. End Credits [09:11]
 
Exact Audio Copy V0.99 prebeta 5 from 4. May 2009

EAC extraction logfile from 30. June 2010, 14:53

Michael Giacchino / Star Trek: The Deluxe Edition - CD 1

Used drive : LITE-ON DVD SHD-16P1S Adapter: 0 ID: 0

Read mode : SecureUtilize accurate stream : YesDefeat audio cache : YesMake use of C2 pointers : No

Read offset correction : 6Overread into Lead-In and Lead-Out : NoFill up missing offset samples with silence : YesDelete leading and trailing silent blocks : NoNull samples used in CRC calculations : YesUsed interface : Installed external ASPI interfaceGap handling : Appended to previous track

Used output format : User Defined EncoderSelected bitrate : 320 kBit/sQuality : HighAdd ID3 tag : NoCommand line compressor : C:\Program Files\FLAC\flac.exeAdditional command line options : -V -8 -T "artist=%a" -T "title=%t" -T "album=%g" -T "date=%y" -T "tracknumber=%n" -T "genre=%m" %s

TOC of the extracted CD

Track | Start | Length | Start sector | End sector --------------------------------------------------------- 1 | 0:00.00 | 2:28.15 | 0 | 11114 2 | 2:28.15 | 2:48.05 | 11115 | 23719 3 | 5:16.20 | 1:24.66 | 23720 | 30085 4 | 6:41.11 | 2:09.09 | 30086 | 39769 5 | 8:50.20 | 2:44.09 | 39770 | 52078 6 | 11:34.29 | 0:46.20 | 52079 | 55548 7 | 12:20.49 | 1:10.55 | 55549 | 60853 8 | 13:31.29 | 1:37.16 | 60854 | 68144 9 | 15:08.45 | 1:56.04 | 68145 | 76848 10 | 17:04.49 | 0:27.69 | 76849 | 78942 11 | 17:32.43 | 1:09.34 | 78943 | 84151 12 | 18:42.02 | 1:30.14 | 84152 | 90915 13 | 20:12.16 | 2:47.21 | 90916 | 103461 14 | 22:59.37 | 3:05.32 | 103462 | 117368 15 | 26:04.69 | 3:22.70 | 117369 | 132588 16 | 29:27.64 | 3:23.10 | 132589 | 147823 17 | 32:50.74 | 2:07.15 | 147824 | 157363 18 | 34:58.14 | 3:02.20 | 157364 | 171033 19 | 38:00.34 | 3:29.45 | 171034 | 186753 20 | 41:30.04 | 0:56.23 | 186754 | 190976 21 | 42:26.27 | 1:51.12 | 190977 | 199313 22 | 44:17.39 | 1:29.62 | 199314 | 206050 23 | 45:47.26 | 3:09.42 | 206051 | 220267 24 | 48:56.68 | 2:15.70 | 220268 | 230462 25 | 51:12.63 | 1:18.13 | 230463 | 236325 26 | 52:31.01 | 0:35.26 | 236326 | 238976 27 | 53:06.27 | 1:30.11 | 238977 | 245737 28 | 54:36.38 | 0:49.65 | 245738 | 249477

Track 1

Filename D:\Musiques\Michael Giacchino\Star Trek - The Deluxe Edition\CD 1\FLAC\01 Star Trek.wav

Pre-gap length 0:00:02.00

Peak level 98.8 % Track quality 100.0 % Test CRC BB513F34 Copy CRC BB513F34 Track not present in AccurateRip database Copy OK

Track 2

Filename D:\Musiques\Michael Giacchino\Star Trek - The Deluxe Edition\CD 1\FLAC\02 Narada Boom.wav

Pre-gap length 0:00:03.28

Peak level 98.8 % Track quality 100.0 % Test CRC DF9FFCAC Copy CRC DF9FFCAC Track not present in AccurateRip database Copy OK

Track 3

Filename D:\Musiques\Michael Giacchino\Star Trek - The Deluxe Edition\CD 1\FLAC\03 Hack To The Future.wav

Peak level 98.8 % Track quality 100.0 % Test CRC 15E9991F Copy CRC 15E9991F Track not present in AccurateRip database Copy OK

Track 4

Filename D:\Musiques\Michael Giacchino\Star Trek - The Deluxe Edition\CD 1\FLAC\04 Nailin' The Kelvin.wav

Pre-gap length 0:00:01.30

Peak level 98.8 % Track quality 100.0 % Test CRC 382309AF Copy CRC 382309AF Track not present in AccurateRip database Copy OK

Track 5

Filename D:\Musiques\Michael Giacchino\Star Trek - The Deluxe Edition\CD 1\FLAC\05 Labor Of Love.wav

Peak level 98.8 % Track quality 100.0 % Test CRC D5DFE028 Copy CRC D5DFE028 Track not present in AccurateRip database Copy OK

Track 6

Filename D:\Musiques\Michael Giacchino\Star Trek - The Deluxe Edition\CD 1\FLAC\06 Main Title.wav

Peak level 98.6 % Track quality 100.0 % Test CRC 264B0A31 Copy CRC 264B0A31 Track not present in AccurateRip database Copy OK

Track 7

Filename D:\Musiques\Michael Giacchino\Star Trek - The Deluxe Edition\CD 1\FLAC\07 Head To Heart Conversation.wav

Pre-gap length 0:00:00.84

Peak level 40.3 % Track quality 99.8 % Test CRC 5567B7D9 Copy CRC 5567B7D9 Track not present in AccurateRip database Copy OK

Track 8

Filename D:\Musiques\Michael Giacchino\Star Trek - The Deluxe Edition\CD 1\FLAC\08 One Proud Mother.wav

Pre-gap length 0:00:02.81

Peak level 40.8 % Track quality 100.0 % Test CRC C8332164 Copy CRC C8332164 Track not present in AccurateRip database Copy OK

Track 9

Filename D:\Musiques\Michael Giacchino\Star Trek - The Deluxe Edition\CD 1\FLAC\09 Hella Bar Talk.wav

Pre-gap length 0:00:01.81

Peak level 98.8 % Track quality 100.0 % Test CRC F68D679C Copy CRC F68D679C Track not present in AccurateRip database Copy OK

Track 10

Filename D:\Musiques\Michael Giacchino\Star Trek - The Deluxe Edition\CD 1\FLAC\10 The Flask At Hand.wav

Pre-gap length 0:00:02.30

Peak level 98.8 % Track quality 100.0 % Test CRC 81E40A4A Copy CRC 81E40A4A Track not present in AccurateRip database Copy OK

Track 11

Filename D:\Musiques\Michael Giacchino\Star Trek - The Deluxe Edition\CD 1\FLAC\11 Welcome Back, Spock.wav

Pre-gap length 0:00:00.94

Peak level 98.8 % Track quality 100.0 % Test CRC D468ED1F Copy CRC D468ED1F Track not present in AccurateRip database Copy OK

Track 12

Filename D:\Musiques\Michael Giacchino\Star Trek - The Deluxe Edition\CD 1\FLAC\12 Vulcan Gets A Good Drilling.wav

Pre-gap length 0:00:00.92

Peak level 98.8 % Track quality 100.0 % Test CRC D888D6C8 Copy CRC D888D6C8 Track not present in AccurateRip database Copy OK

Track 13

Filename D:\Musiques\Michael Giacchino\Star Trek - The Deluxe Edition\CD 1\FLAC\13 Hangar Management.wav

Pre-gap length 0:00:00.78

Peak level 98.8 % Track quality 100.0 % Test CRC 810BCC1F Copy CRC 810BCC1F Track not present in AccurateRip database Copy OK

Track 14

Filename D:\Musiques\Michael Giacchino\Star Trek - The Deluxe Edition\CD 1\FLAC\14 Enterprising Young Men.wav

Pre-gap length 0:00:01.29

Peak level 98.8 % Track quality 100.0 % Test CRC 1605A645 Copy CRC 1605A645 Track not present in AccurateRip database Copy OK

Track 15

Filename D:\Musiques\Michael Giacchino\Star Trek - The Deluxe Edition\CD 1\FLAC\15 Flying Into A Trphlthdl.wav

Pre-gap length 0:00:01.20

Peak level 98.8 % Track quality 100.0 % Test CRC 55768BAB Copy CRC 55768BAB Track not present in AccurateRip database Copy OK

Track 16

Filename D:\Musiques\Michael Giacchino\Star Trek - The Deluxe Edition\CD 1\FLAC\16 Nero Sighted.wav

Peak level 98.8 % Track quality 100.0 % Test CRC D3CAF82F Copy CRC D3CAF82F Track not present in AccurateRip database Copy OK

Track 17

Filename D:\Musiques\Michael Giacchino\Star Trek - The Deluxe Edition\CD 1\FLAC\17 Matter I Barely Know Her!.wav

Peak level 98.8 % Track quality 100.0 % Test CRC 2BA4D392 Copy CRC 2BA4D392 Track not present in AccurateRip database Copy OK

Track 18

Filename D:\Musiques\Michael Giacchino\Star Trek - The Deluxe Edition\CD 1\FLAC\18 Jehosafats.wav

Pre-gap length 0:00:01.29

Peak level 98.8 % Track quality 99.9 % Test CRC 096E4ABC Copy CRC 096E4ABC Track not present in AccurateRip database Copy OK

Track 19

Filename D:\Musiques\Michael Giacchino\Star Trek - The Deluxe Edition\CD 1\FLAC\19 Chutes And Matter.wav

Peak level 98.8 % Track quality 100.0 % Test CRC 0C680D79 Copy CRC 0C680D79 Track not present in AccurateRip database Copy OK

Track 20

Filename D:\Musiques\Michael Giacchino\Star Trek - The Deluxe Edition\CD 1\FLAC\20 A Whole In My Hearth.wav

Pre-gap length 0:00:00.86

Peak level 98.8 % Track quality 100.0 % Test CRC 07B3AFAA Copy CRC 678FDE17 Track not present in AccurateRip database Copy OK

Track 21

Filename D:\Musiques\Michael Giacchino\Star Trek - The Deluxe Edition\CD 1\FLAC\21 I've Fallen And I Can't Beam Up!.wav

Pre-gap length 0:00:00.73

Peak level 98.8 % Track quality 100.0 % Test CRC 544F3781 Copy CRC 544F3781 Track not present in AccurateRip database Copy OK

Track 22

Filename D:\Musiques\Michael Giacchino\Star Trek - The Deluxe Edition\CD 1\FLAC\22 Spock Goes Spelunking.wav

Peak level 98.8 % Track quality 100.0 % Test CRC 66A208B6 Copy CRC 66A208B6 Track not present in AccurateRip database Copy OK

Track 23

Filename D:\Musiques\Michael Giacchino\Star Trek - The Deluxe Edition\CD 1\FLAC\23 An Endangered Species.wav

Pre-gap length 0:00:00.94

Peak level 98.8 % Track quality 100.0 % Test CRC A683CC69 Copy CRC A683CC69 Track not present in AccurateRip database Copy OK

Track 24

Filename D:\Musiques\Michael Giacchino\Star Trek - The Deluxe Edition\CD 1\FLAC\24 Galaxy's Worst Sushi Bar.wav

Peak level 98.8 % Track quality 100.0 % Test CRC 5E4B2105 Copy CRC 5E4B2105 Track not present in AccurateRip database Copy OK

Track 25

Filename D:\Musiques\Michael Giacchino\Star Trek - The Deluxe Edition\CD 1\FLAC\25 Mandatory Leave Of Absence.wav

Pre-gap length 0:00:01.77

Peak level 75.0 % Track quality 100.0 % Test CRC B820F6A9 Copy CRC B820F6A9 Track not present in AccurateRip database Copy OK

Track 26

Filename D:\Musiques\Michael Giacchino\Star Trek - The Deluxe Edition\CD 1\FLAC\26 Dad's Route To School.wav

Peak level 98.5 % Track quality 100.0 % Test CRC E730AD4F Copy CRC E730AD4F Track not present in AccurateRip database Copy OK

Track 27

Filename D:\Musiques\Michael Giacchino\Star Trek - The Deluxe Edition\CD 1\FLAC\27 Frozen Dinner.wav

Pre-gap length 0:00:00.78

Peak level 98.8 % Track quality 100.0 % Test CRC A18633D5 Copy CRC A18633D5 Track not present in AccurateRip database Copy OK

Track 28

Filename D:\Musiques\Michael Giacchino\Star Trek - The Deluxe Edition\CD 1\FLAC\28 You Snowin' Me .wav

Pre-gap length 0:00:00.57

Peak level 44.1 % Track quality 100.0 % Test CRC B6773074 Copy CRC B6773074 Track not present in AccurateRip database Copy OK

None of the tracks are present in the AccurateRip database

No errors occurred

End of status report

------------------------------------------------------------

Exact Audio Copy V0.99 prebeta 5 from 4. May 2009

EAC extraction logfile from 30. June 2010, 14:54

Michael Giacchino / Star Trek: The Deluxe Edition - CD 1

Used drive : LITE-ON DVD SHD-16P1S Adapter: 0 ID: 0

Read mode : SecureUtilize accurate stream : YesDefeat audio cache : YesMake use of C2 pointers : No

Read offset correction : 6Overread into Lead-In and Lead-Out : NoFill up missing offset samples with silence : YesDelete leading and trailing silent blocks : NoNull samples used in CRC calculations : YesUsed interface : Installed external ASPI interfaceGap handling : Appended to previous track

Used output format : User Defined EncoderSelected bitrate : 320 kBit/sQuality : HighAdd ID3 tag : NoCommand line compressor : C:\Program Files\FLAC\flac.exeAdditional command line options : -V -8 -T "artist=%a" -T "title=%t" -T "album=%g" -T "date=%y" -T "tracknumber=%n" -T "genre=%m" %s

TOC of the extracted CD

Track | Start | Length | Start sector | End sector --------------------------------------------------------- 1 | 0:00.00 | 2:28.15 | 0 | 11114 2 | 2:28.15 | 2:48.05 | 11115 | 23719 3 | 5:16.20 | 1:24.66 | 23720 | 30085 4 | 6:41.11 | 2:09.09 | 30086 | 39769 5 | 8:50.20 | 2:44.09 | 39770 | 52078 6 | 11:34.29 | 0:46.20 | 52079 | 55548 7 | 12:20.49 | 1:10.55 | 55549 | 60853 8 | 13:31.29 | 1:37.16 | 60854 | 68144 9 | 15:08.45 | 1:56.04 | 68145 | 76848 10 | 17:04.49 | 0:27.69 | 76849 | 78942 11 | 17:32.43 | 1:09.34 | 78943 | 84151 12 | 18:42.02 | 1:30.14 | 84152 | 90915 13 | 20:12.16 | 2:47.21 | 90916 | 103461 14 | 22:59.37 | 3:05.32 | 103462 | 117368 15 | 26:04.69 | 3:22.70 | 117369 | 132588 16 | 29:27.64 | 3:23.10 | 132589 | 147823 17 | 32:50.74 | 2:07.15 | 147824 | 157363 18 | 34:58.14 | 3:02.20 | 157364 | 171033 19 | 38:00.34 | 3:29.45 | 171034 | 186753 20 | 41:30.04 | 0:56.23 | 186754 | 190976 21 | 42:26.27 | 1:51.12 | 190977 | 199313 22 | 44:17.39 | 1:29.62 | 199314 | 206050 23 | 45:47.26 | 3:09.42 | 206051 | 220267 24 | 48:56.68 | 2:15.70 | 220268 | 230462 25 | 51:12.63 | 1:18.13 | 230463 | 236325 26 | 52:31.01 | 0:35.26 | 236326 | 238976 27 | 53:06.27 | 1:30.11 | 238977 | 245737 28 | 54:36.38 | 0:49.65 | 245738 | 249477

Track 20

Filename D:\Musiques\Michael Giacchino\Star Trek - The Deluxe Edition\CD 1\FLAC\20 A Whole In My Hearth.wav

Pre-gap length 0:00:00.86

Peak level 98.8 % Track quality 100.0 % Test CRC 07B3AFAA Copy CRC 07B3AFAA Track not present in AccurateRip database Copy OK

None of the tracks are present in the AccurateRip database

No errors occurred

End of status report
 
REM GENRE SoundtrackREM DATE 2010REM DISCID 830CFE1CREM COMMENT "ExactAudioCopy v0.99pb5"PERFORMER "Michael Giacchino"TITLE "Star Trek: The Deluxe Edition - CD 1"FILE "01 Star Trek.wav" WAVE TRACK 01 AUDIO TITLE "Star Trek" PERFORMER "Michael Giacchino" INDEX 01 00:00:00 TRACK 02 AUDIO TITLE "Narada Boom" PERFORMER "Michael Giacchino" INDEX 00 02:24:69FILE "02 Narada Boom.wav" WAVE INDEX 01 00:00:00FILE "03 Hack To The Future.wav" WAVE TRACK 03 AUDIO TITLE "Hack To The Future" PERFORMER "Michael Giacchino" INDEX 01 00:00:00 TRACK 04 AUDIO TITLE "Nailin' The Kelvin" PERFORMER "Michael Giacchino" INDEX 00 01:23:43FILE "04 Nailin' The Kelvin.wav" WAVE INDEX 01 00:00:00FILE "05 Labor Of Love.wav" WAVE TRACK 05 AUDIO TITLE "Labor Of Love" PERFORMER "Michael Giacchino" INDEX 01 00:00:00FILE "06 Main Title.wav" WAVE TRACK 06 AUDIO TITLE "Main Title" PERFORMER "Michael Giacchino" INDEX 01 00:00:00 TRACK 07 AUDIO TITLE "Head To Heart Conversation" PERFORMER "Michael Giacchino" INDEX 00 00:45:32FILE "07 Head To Heart Conversation.wav" WAVE INDEX 01 00:00:00 TRACK 08 AUDIO TITLE "One Proud Mother" PERFORMER "Michael Giacchino" INDEX 00 01:07:69FILE "08 One Proud Mother.wav" WAVE INDEX 01 00:00:00 TRACK 09 AUDIO TITLE "Hella Bar Talk" PERFORMER "Michael Giacchino" INDEX 00 01:35:30FILE "09 Hella Bar Talk.wav" WAVE INDEX 01 00:00:00 TRACK 10 AUDIO TITLE "The Flask At Hand" PERFORMER "Michael Giacchino" INDEX 00 01:53:56FILE "10 The Flask At Hand.wav" WAVE INDEX 01 00:00:00 TRACK 11 AUDIO TITLE "Welcome Back, Spock" PERFORMER "Michael Giacchino" INDEX 00 00:26:73FILE "11 Welcome Back, Spock.wav" WAVE INDEX 01 00:00:00 TRACK 12 AUDIO TITLE "Vulcan Gets A Good Drilling" PERFORMER "Michael Giacchino" INDEX 00 01:08:40FILE "12 Vulcan Gets A Good Drilling.wav" WAVE INDEX 01 00:00:00 TRACK 13 AUDIO TITLE "Hangar Management" PERFORMER "Michael Giacchino" INDEX 00 01:29:30FILE "13 Hangar Management.wav" WAVE INDEX 01 00:00:00 TRACK 14 AUDIO TITLE "Enterprising Young Men" PERFORMER "Michael Giacchino" INDEX 00 02:45:74FILE "14 Enterprising Young Men.wav" WAVE INDEX 01 00:00:00 TRACK 15 AUDIO TITLE "Flying Into A Trphlthdl" PERFORMER "Michael Giacchino" INDEX 00 03:04:17FILE "15 Flying Into A Trphlthdl.wav" WAVE INDEX 01 00:00:00FILE "16 Nero Sighted.wav" WAVE TRACK 16 AUDIO TITLE "Nero Sighted" PERFORMER "Michael Giacchino" INDEX 01 00:00:00FILE "17 Matter I Barely Know Her!.wav" WAVE TRACK 17 AUDIO TITLE "Matter? I Barely Know Her!" PERFORMER "Michael Giacchino" INDEX 01 00:00:00 TRACK 18 AUDIO TITLE "Jehosafats" PERFORMER "Michael Giacchino" INDEX 00 02:05:68FILE "18 Jehosafats.wav" WAVE INDEX 01 00:00:00FILE "19 Chutes And Matter.wav" WAVE TRACK 19 AUDIO TITLE "Chutes And Matter" PERFORMER "Michael Giacchino" INDEX 01 00:00:00 TRACK 20 AUDIO TITLE "A Whole In My Hearth" PERFORMER "Michael Giacchino" INDEX 00 03:28:55FILE "20 A Whole In My Hearth.wav" WAVE INDEX 01 00:00:00 TRACK 21 AUDIO TITLE "I've Fallen And I Can't Beam Up!" PERFORMER "Michael Giacchino" INDEX 00 00:55:43FILE "21 I've Fallen And I Can't Beam Up!.wav" WAVE INDEX 01 00:00:00FILE "22 Spock Goes Spelunking.wav" WAVE TRACK 22 AUDIO TITLE "Spock Goes Spelunking" PERFORMER "Michael Giacchino" INDEX 01 00:00:00 TRACK 23 AUDIO TITLE "An Endangered Species" PERFORMER "Michael Giacchino" INDEX 00 01:28:66FILE "23 An Endangered Species.wav" WAVE INDEX 01 00:00:00FILE "24 Galaxy's Worst Sushi Bar.wav" WAVE TRACK 24 AUDIO TITLE "Galaxy's Worst Sushi Bar" PERFORMER "Michael Giacchino" INDEX 01 00:00:00 TRACK 25 AUDIO TITLE "Mandatory Leave Of Absence" PERFORMER "Michael Giacchino" INDEX 00 02:14:12FILE "25 Mandatory Leave Of Absence.wav" WAVE INDEX 01 00:00:00FILE "26 Dad's Route To School.wav" WAVE TRACK 26 AUDIO TITLE "Dad's Route To School" PERFORMER "Michael Giacchino" INDEX 01 00:00:00 TRACK 27 AUDIO TITLE "Frozen Dinner" PERFORMER "Michael Giacchino" INDEX 00 00:34:42FILE "27 Frozen Dinner.wav" WAVE INDEX 01 00:00:00 TRACK 28 AUDIO TITLE "You Snowin' Me?" PERFORMER "Michael Giacchino" INDEX 00 01:29:43FILE "28 You Snowin' Me .wav" WAVE INDEX 01 00:00:00
 
Exact Audio Copy V0.99 prebeta 5 from 4. May 2009

EAC extraction logfile from 30. June 2010, 15:14

Michael Giacchino / Star Trek: The Deluxe Edition - CD2

Used drive : LITE-ON DVD SHD-16P1S Adapter: 0 ID: 0

Read mode : SecureUtilize accurate stream : YesDefeat audio cache : YesMake use of C2 pointers : No

Read offset correction : 6Overread into Lead-In and Lead-Out : NoFill up missing offset samples with silence : YesDelete leading and trailing silent blocks : NoNull samples used in CRC calculations : YesUsed interface : Installed external ASPI interfaceGap handling : Appended to previous track

Used output format : User Defined EncoderSelected bitrate : 320 kBit/sQuality : HighAdd ID3 tag : NoCommand line compressor : C:\Program Files\FLAC\flac.exeAdditional command line options : -V -8 -T "artist=%a" -T "title=%t" -T "album=%g" -T "date=%y" -T "tracknumber=%n" -T "genre=%m" %s

TOC of the extracted CD

Track | Start | Length | Start sector | End sector --------------------------------------------------------- 1 | 0:00.00 | 3:13.04 | 0 | 14478 2 | 3:13.04 | 0:50.68 | 14479 | 18296 3 | 4:03.72 | 2:02.43 | 18297 | 27489 4 | 6:06.40 | 1:39.02 | 27490 | 34916 5 | 7:45.42 | 2:12.24 | 34917 | 44840 6 | 9:57.66 | 2:42.74 | 44841 | 57064 7 | 12:40.65 | 2:32.33 | 57065 | 68497 8 | 15:13.23 | 2:02.53 | 68498 | 77700 9 | 17:16.01 | 2:02.54 | 77701 | 86904 10 | 19:18.55 | 5:38.07 | 86905 | 112261 11 | 24:56.62 | 2:28.71 | 112262 | 123432 12 | 27:25.58 | 0:55.61 | 123433 | 127618 13 | 28:21.44 | 0:58.60 | 127619 | 132028 14 | 29:20.29 | 4:45.36 | 132029 | 153439 15 | 34:05.65 | 0:26.61 | 153440 | 155450 16 | 34:32.51 | 9:11.35 | 155451 | 196810

Track 1

Filename D:\Musiques\Michael Giacchino\Star Trek - The Deluxe Edition\CD 2\01 Nice To Meld You.wav

Pre-gap length 0:00:02.00

Peak level 98.8 % Track quality 100.0 % Test CRC 8DEDE636 Copy CRC 8DEDE636 Track not present in AccurateRip database Copy OK

Track 2

Filename D:\Musiques\Michael Giacchino\Star Trek - The Deluxe Edition\CD 2\02 Hail To The Chief.wav

Pre-gap length 0:00:01.05

Peak level 95.1 % Track quality 100.0 % Test CRC 445EFCC1 Copy CRC 445EFCC1 Track not present in AccurateRip database Copy OK

Track 3

Filename D:\Musiques\Michael Giacchino\Star Trek - The Deluxe Edition\CD 2\03 I Gotta Beam Me.wav

Peak level 98.8 % Track quality 100.0 % Test CRC 459EEA6A Copy CRC 459EEA6A Track not present in AccurateRip database Copy OK

Track 4

Filename D:\Musiques\Michael Giacchino\Star Trek - The Deluxe Edition\CD 2\04 Scotty's Tanked.wav

Peak level 98.8 % Track quality 100.0 % Test CRC DC1CAC18 Copy CRC DC1CAC18 Track not present in AccurateRip database Copy OK

Track 5

Filename D:\Musiques\Michael Giacchino\Star Trek - The Deluxe Edition\CD 2\05 What's With You .wav

Pre-gap length 0:00:01.32

Peak level 98.8 % Track quality 100.0 % Test CRC B4FA4CD3 Copy CRC B4FA4CD3 Track not present in AccurateRip database Copy OK

Track 6

Filename D:\Musiques\Michael Giacchino\Star Trek - The Deluxe Edition\CD 2\06 Either Way, Someone's Going Down.wav

Pre-gap length 0:00:01.33

Peak level 98.8 % Track quality 100.0 % Test CRC E891C80E Copy CRC E891C80E Track not present in AccurateRip database Copy OK

Track 7

Filename D:\Musiques\Michael Giacchino\Star Trek - The Deluxe Edition\CD 2\07 Trekking Down The Narada.wav

Peak level 98.8 % Track quality 99.9 % Test CRC 68A73077 Copy CRC 68A73077 Track not present in AccurateRip database Copy OK

Track 8

Filename D:\Musiques\Michael Giacchino\Star Trek - The Deluxe Edition\CD 2\08 Run And Shoot Offense.wav

Pre-gap length 0:00:01.10

Peak level 98.8 % Track quality 100.0 % Test CRC 4EB1F6B2 Copy CRC 043C1168 Track not present in AccurateRip database Copy OK

Track 9

Filename D:\Musiques\Michael Giacchino\Star Trek - The Deluxe Edition\CD 2\09 Does It Still McFly .wav

Peak level 98.8 % Track quality 100.0 % Test CRC FC7B9FBC Copy CRC FC7B9FBC Track not present in AccurateRip database Copy OK

Track 10

Filename D:\Musiques\Michael Giacchino\Star Trek - The Deluxe Edition\CD 2\10 Nero Death Experience.wav

Peak level 98.8 % Track quality 100.0 % Test CRC 26D9C7D3 Copy CRC 26D9C7D3 Track not present in AccurateRip database Copy OK

Track 11

Filename D:\Musiques\Michael Giacchino\Star Trek - The Deluxe Edition\CD 2\11 Nero Fiddles, Narada Burns.wav

Peak level 98.9 % Track quality 100.0 % Test CRC 7DE911AD Copy CRC 7DE911AD Track not present in AccurateRip database Copy OK

Track 12

Filename D:\Musiques\Michael Giacchino\Star Trek - The Deluxe Edition\CD 2\12 Black Holes Have A Lot Of Pull.wav

Peak level 98.8 % Track quality 100.0 % Test CRC CADECE96 Copy CRC CADECE96 Track not present in AccurateRip database Copy OK

Track 13

Filename D:\Musiques\Michael Giacchino\Star Trek - The Deluxe Edition\CD 2\13 Back From Black.wav

Peak level 98.8 % Track quality 100.0 % Test CRC 74FF66DB Copy CRC 74FF66DB Track not present in AccurateRip database Copy OK

Track 14

Filename D:\Musiques\Michael Giacchino\Star Trek - The Deluxe Edition\CD 2\14 That New Car Smell.wav

Pre-gap length 0:00:01.05

Peak level 98.8 % Track quality 100.0 % Test CRC 4DE80687 Copy CRC 4DE80687 Track not present in AccurateRip database Copy OK

Track 15

Filename D:\Musiques\Michael Giacchino\Star Trek - The Deluxe Edition\CD 2\15 To Bodly Go.wav

Peak level 91.1 % Track quality 100.0 % Test CRC F3935A95 Copy CRC F3935A95 Track not present in AccurateRip database Copy OK

Track 16

Filename D:\Musiques\Michael Giacchino\Star Trek - The Deluxe Edition\CD 2\16 End Credits.wav

Peak level 98.8 % Track quality 100.0 % Test CRC CD4E22AB Copy CRC CD4E22AB Track not present in AccurateRip database Copy OK

None of the tracks are present in the AccurateRip database

No errors occurred

End of status report

------------------------------------------------------------

Exact Audio Copy V0.99 prebeta 5 from 4. May 2009

EAC extraction logfile from 30. June 2010, 15:15

Michael Giacchino / Star Trek: The Deluxe Edition - CD2

Used drive : LITE-ON DVD SHD-16P1S Adapter: 0 ID: 0

Read mode : SecureUtilize accurate stream : YesDefeat audio cache : YesMake use of C2 pointers : No

Read offset correction : 6Overread into Lead-In and Lead-Out : NoFill up missing offset samples with silence : YesDelete leading and trailing silent blocks : NoNull samples used in CRC calculations : YesUsed interface : Installed external ASPI interfaceGap handling : Appended to previous track

Used output format : User Defined EncoderSelected bitrate : 320 kBit/sQuality : HighAdd ID3 tag : NoCommand line compressor : C:\Program Files\FLAC\flac.exeAdditional command line options : -V -8 -T "artist=%a" -T "title=%t" -T "album=%g" -T "date=%y" -T "tracknumber=%n" -T "genre=%m" %s

TOC of the extracted CD

Track | Start | Length | Start sector | End sector --------------------------------------------------------- 1 | 0:00.00 | 3:13.04 | 0 | 14478 2 | 3:13.04 | 0:50.68 | 14479 | 18296 3 | 4:03.72 | 2:02.43 | 18297 | 27489 4 | 6:06.40 | 1:39.02 | 27490 | 34916 5 | 7:45.42 | 2:12.24 | 34917 | 44840 6 | 9:57.66 | 2:42.74 | 44841 | 57064 7 | 12:40.65 | 2:32.33 | 57065 | 68497 8 | 15:13.23 | 2:02.53 | 68498 | 77700 9 | 17:16.01 | 2:02.54 | 77701 | 86904 10 | 19:18.55 | 5:38.07 | 86905 | 112261 11 | 24:56.62 | 2:28.71 | 112262 | 123432 12 | 27:25.58 | 0:55.61 | 123433 | 127618 13 | 28:21.44 | 0:58.60 | 127619 | 132028 14 | 29:20.29 | 4:45.36 | 132029 | 153439 15 | 34:05.65 | 0:26.61 | 153440 | 155450 16 | 34:32.51 | 9:11.35 | 155451 | 196810

Track 8

Filename D:\Musiques\Michael Giacchino\Star Trek - The Deluxe Edition\CD 2\08 Run And Shoot Offense.wav

Pre-gap length 0:00:01.10

Peak level 98.8 % Track quality 100.0 % Test CRC 043C1168 Copy CRC 043C1168 Track not present in AccurateRip database Copy OK

None of the tracks are present in the AccurateRip database

No errors occurred

End of status report
 
REM GENRE SoundtrackREM DATE 2010REM DISCID E40A4010REM COMMENT "ExactAudioCopy v0.99pb5"PERFORMER "Michael Giacchino"TITLE "Star Trek: The Deluxe Edition - CD2"FILE "01 Nice To Meld You.wav" WAVE TRACK 01 AUDIO TITLE "Nice To Meld You" PERFORMER "Michael Giacchino" INDEX 01 00:00:00 TRACK 02 AUDIO TITLE "Hail To The Chief" PERFORMER "Michael Giacchino" INDEX 00 03:12:00FILE "02 Hail To The Chief.wav" WAVE INDEX 01 00:00:00FILE "03 I Gotta Beam Me.wav" WAVE TRACK 03 AUDIO TITLE "I Gotta Beam Me" PERFORMER "Michael Giacchino" INDEX 01 00:00:00FILE "04 Scotty's Tanked.wav" WAVE TRACK 04 AUDIO TITLE "Scotty's Tanked" PERFORMER "Michael Giacchino" INDEX 01 00:00:00 TRACK 05 AUDIO TITLE "What's With You?" PERFORMER "Michael Giacchino" INDEX 00 01:37:53FILE "05 What's With You .wav" WAVE INDEX 01 00:00:00 TRACK 06 AUDIO TITLE "Either Way, Someone's Going Down" PERFORMER "Michael Giacchino" INDEX 00 02:10:74FILE "06 Either Way, Someone's Going Down.wav" WAVE INDEX 01 00:00:00FILE "07 Trekking Down The Narada.wav" WAVE TRACK 07 AUDIO TITLE "Trekking Down The Narada" PERFORMER "Michael Giacchino" INDEX 01 00:00:00 TRACK 08 AUDIO TITLE "Run And Shoot Offense" PERFORMER "Michael Giacchino" INDEX 00 02:31:25FILE "08 Run And Shoot Offense.wav" WAVE INDEX 01 00:00:00FILE "09 Does It Still McFly .wav" WAVE TRACK 09 AUDIO TITLE "Does It Still McFly?" PERFORMER "Michael Giacchino" INDEX 01 00:00:00FILE "10 Nero Death Experience.wav" WAVE TRACK 10 AUDIO TITLE "Nero Death Experience" PERFORMER "Michael Giacchino" INDEX 01 00:00:00FILE "11 Nero Fiddles, Narada Burns.wav" WAVE TRACK 11 AUDIO TITLE "Nero Fiddles, Narada Burns" PERFORMER "Michael Giacchino" INDEX 01 00:00:00FILE "12 Black Holes Have A Lot Of Pull.wav" WAVE TRACK 12 AUDIO TITLE "Black Holes Have A Lot Of Pull" PERFORMER "Michael Giacchino" INDEX 01 00:00:00FILE "13 Back From Black.wav" WAVE TRACK 13 AUDIO TITLE "Back From Black" PERFORMER "Michael Giacchino" INDEX 01 00:00:00 TRACK 14 AUDIO TITLE "That New Car Smell" PERFORMER "Michael Giacchino" INDEX 00 00:57:56FILE "14 That New Car Smell.wav" WAVE INDEX 01 00:00:00FILE "15 To Bodly Go.wav" WAVE TRACK 15 AUDIO TITLE "To Bodly Go" PERFORMER "Michael Giacchino" INDEX 01 00:00:00FILE "16 End Credits.wav" WAVE TRACK 16 AUDIO TITLE "End Credits" PERFORMER "Michael Giacchino" INDEX 01 00:00:00



Трекер:  [ 08-Июл-2011 12:41 ]

  

Скачать .torrent

Размер .torrent файла 43 KB


Размер: 510 MB
Хэш (hash) релиза: 5c54402c65b6c8bfba63630730e2ae0a2e1eb4a8

Еще никто не оставлял запись к записи скачать торрент Звездный путь Star Trek: The Deluxe Edition . Будь первым!

!Обратная связь