Скачать через торрент музыку Свадьба лучшего друга My Best Friends Wedding бесплатно без регистрации torrent

Если у вас наблюдаются проблемы со скриншотами, переходом по ссылками, скачиванием торрентов - проблемы в блокировщике рекламы AdBlock. #хорошегоДня!


Статистика раздачи
Размер:  280 MB   |    Зарегистрирован:  6 лет 5 месяцев   |    .torrent скачан:  38 раз   |   
Раздают:  1  
   
Загрузка...
 
Автор Сообщение

Galfimbul

avatar Galfimbul


Свадьба лучшего друга / My Best Friend's Wedding

Жанр: Soundtrack
Год выпуска диска: 1997
Производитель диска: USA
Аудио кодек: FLAC
Тип рипа: tracks+.cue
Битрейт аудио: lossless
Продолжительность: 00:46:49

01 - Diana King - I Say A Little Prayer (03:38)
02 - Ani Difranco - Wishin' And Hopin' (03:18)
03 - Jann Arden - You Don't Know Me (03:28)
04 - The Exciters - Tell Him (02:36)
05 - Nicky Holland - I Just Don't Know What To Do With Myself (04:21)
06 - Amanda Marshall - I'll Be Okay (04:59)
07 - Tony Bennett - The Way You Look Tonight (03:26)
08 - Jackie Deshannon - What The World Needs Now Is Love (03:15)
09 - Mary Chapin Carpenter - I'll Never Fall In Love Again (03:52)
10 - Sophie Zelmani - Always You (02:53)
11 - Jimmy Soul - If You Wanna Be Happy (02:23)
12 - My Best Friend's Wedding Cast - I Say A Little Prayer (02:31)
13 - James Newton Howard - Suite From My Best Friend's Wedding (06:12)

Источник: what.cd
 
Exact Audio Copy V0.99 prebeta 4 from 23. January 2008

EAC extraction logfile from 19. October 2008, 18:01

Various / My Best Friend's Wedding OST

Used drive : HL-DT-STRW/DVD GCC-4244N Adapter: 0 ID: 1

Read mode : SecureUtilize accurate stream : YesDefeat audio cache : YesMake use of C2 pointers : No

Read offset correction : 102Overread into Lead-In and Lead-Out : NoFill up missing offset samples with silence : YesDelete leading and trailing silent blocks : NoNull samples used in CRC calculations : YesUsed interface : Native Win32 interface for Win NT & 2000Gap handling : Appended to previous track

Used output format : User Defined EncoderSelected bitrate : 320 kBit/sQuality : HighAdd ID3 tag : NoCommand line compressor : C:\Program Files\FLAC\flac.exeAdditional command line options : -V -8 -T "artist=%a" -T "title=%t" -T "album=%g" -T "date=%y" -T "tracknumber=%n" -T "genre=%m" %s

TOC of the extracted CD

Track | Start | Length | Start sector | End sector --------------------------------------------------------- 1 | 0:00.00 | 3:37.72 | 0 | 16346 2 | 3:37.72 | 3:17.23 | 16347 | 31144 3 | 6:55.20 | 3:27.50 | 31145 | 46719 4 | 10:22.70 | 2:36.05 | 46720 | 58424 5 | 12:59.00 | 4:20.25 | 58425 | 77949 6 | 17:19.25 | 4:58.70 | 77950 | 100369 7 | 22:18.20 | 3:25.57 | 100370 | 115801 8 | 25:44.02 | 3:14.68 | 115802 | 130419 9 | 28:58.70 | 3:52.12 | 130420 | 147831 10 | 32:51.07 | 2:52.45 | 147832 | 160776 11 | 35:43.52 | 2:23.08 | 160777 | 171509 12 | 38:06.60 | 2:30.45 | 171510 | 182804 13 | 40:37.30 | 6:11.62 | 182805 | 210691

Track 1

Filename C:\FLAC_Rips\Various - My Best Friend's Wedding OST\01 I say a little prayer.wav

Pre-gap length 0:00:02.00

Peak level 95.4 % Track quality 100.0 % Test CRC 42022146 Copy CRC 42022146 Accurately ripped (confidence 2) [33DFDA52] Copy OK

Track 2

Filename C:\FLAC_Rips\Various - My Best Friend's Wedding OST\02 Wishin' and hopin'.wav

Pre-gap length 0:00:02.82

Peak level 93.3 % Track quality 100.0 % Test CRC 809777EE Copy CRC 809777EE Accurately ripped (confidence 2) [2C7E5107] Copy OK

Track 3

Filename C:\FLAC_Rips\Various - My Best Friend's Wedding OST\03 You don't know me.wav

Pre-gap length 0:00:02.70

Peak level 100.0 % Track quality 100.0 % Test CRC 33B667FA Copy CRC 33B667FA Accurately ripped (confidence 2) [02211C2D] Copy OK

Track 4

Filename C:\FLAC_Rips\Various - My Best Friend's Wedding OST\04 Tell him.wav

Pre-gap length 0:00:01.93

Peak level 91.5 % Track quality 99.9 % Test CRC 9DBEC5D6 Copy CRC 9DBEC5D6 Accurately ripped (confidence 2) [C7C530A9] Copy OK

Track 5

Filename C:\FLAC_Rips\Various - My Best Friend's Wedding OST\05 I just don't know what to do with myself.wav

Pre-gap length 0:00:02.80

Peak level 89.1 % Track quality 99.9 % Test CRC F84D284D Copy CRC F84D284D Accurately ripped (confidence 2) [4EA33338] Copy OK

Track 6

Filename C:\FLAC_Rips\Various - My Best Friend's Wedding OST\06 I'll be okay.wav

Pre-gap length 0:00:00.93

Peak level 98.9 % Track quality 100.0 % Test CRC 03AAEEF6 Copy CRC 03AAEEF6 Accurately ripped (confidence 2) [D0E6731C] Copy OK

Track 7

Filename C:\FLAC_Rips\Various - My Best Friend's Wedding OST\07 The way you look tonight.wav

Pre-gap length 0:00:02.97

Peak level 85.4 % Track quality 100.0 % Test CRC 9DA4580C Copy CRC 9DA4580C Accurately ripped (confidence 2) [EE8F532A] Copy OK

Track 8

Filename C:\FLAC_Rips\Various - My Best Friend's Wedding OST\08 What the world needs now is love.wav

Pre-gap length 0:00:02.40

Peak level 94.9 % Track quality 99.9 % Test CRC 8534A86A Copy CRC 8534A86A Accurately ripped (confidence 2) [1CFBDF5D] Copy OK

Track 9

Filename C:\FLAC_Rips\Various - My Best Friend's Wedding OST\09 I'll never fall in love again.wav

Pre-gap length 0:00:02.77

Peak level 95.2 % Track quality 100.0 % Test CRC FB1E7EC8 Copy CRC FB1E7EC8 Accurately ripped (confidence 2) [B46CA967] Copy OK

Track 10

Filename C:\FLAC_Rips\Various - My Best Friend's Wedding OST\10 Always you.wav

Pre-gap length 0:00:01.09

Peak level 86.8 % Track quality 100.0 % Test CRC 489D0C09 Copy CRC 489D0C09 Accurately ripped (confidence 2) [B9D5CF5F] Copy OK

Track 11

Filename C:\FLAC_Rips\Various - My Best Friend's Wedding OST\11 If you wanna be happy.wav

Pre-gap length 0:00:02.49

Peak level 90.5 % Track quality 99.9 % Test CRC A824314E Copy CRC A824314E Accurately ripped (confidence 2) [5FCB2EB9] Copy OK

Track 12

Filename C:\FLAC_Rips\Various - My Best Friend's Wedding OST\12 I say a little prayer.wav

Pre-gap length 0:00:03.33

Peak level 97.1 % Track quality 100.0 % Test CRC 1BD6842C Copy CRC 1BD6842C Accurately ripped (confidence 2) [D5914AA8] Copy OK

Track 13

Filename C:\FLAC_Rips\Various - My Best Friend's Wedding OST\13 Suite from My best friend's wedding.wav

Pre-gap length 0:00:03.10

Peak level 93.0 % Track quality 100.0 % Test CRC 1EB3CA7B Copy CRC 1EB3CA7B Accurately ripped (confidence 2) [087B02BB] Copy OK

All tracks accurately ripped

No errors occurred

End of status report
 
REM GENRE SoundtrackREM DATE 1997REM DISCID A60AF90DREM COMMENT "ExactAudioCopy v0.99pb4"PERFORMER "Various"TITLE "My Best Friend's Wedding OST"FILE "Various - My Best Friend's Wedding OST\01 I say a little prayer.wav" WAVE TRACK 01 AUDIO TITLE "I say a little prayer" PERFORMER "Diana King" ISRC USSM19700761 INDEX 01 00:00:00 TRACK 02 AUDIO TITLE "Wishin' and hopin'" PERFORMER "Ani DiFranco" ISRC USSM19700975 INDEX 00 03:35:10FILE "Various - My Best Friend's Wedding OST\02 Wishin' and hopin'.wav" WAVE INDEX 01 00:00:00 TRACK 03 AUDIO TITLE "You don't know me" PERFORMER "Jann Arden" ISRC USSM19700976 INDEX 00 03:14:45FILE "Various - My Best Friend's Wedding OST\03 You don't know me.wav" WAVE INDEX 01 00:00:00 TRACK 04 AUDIO TITLE "Tell him" PERFORMER "The Exciters" INDEX 00 03:25:55FILE "Various - My Best Friend's Wedding OST\04 Tell him.wav" WAVE INDEX 01 00:00:00 TRACK 05 AUDIO TITLE "I just don't know what to do with myself" PERFORMER "Nicky Holland" ISRC USSM19700977 INDEX 00 02:33:20FILE "Various - My Best Friend's Wedding OST\05 I just don't know what to do with myself.wav" WAVE INDEX 01 00:00:00 TRACK 06 AUDIO TITLE "I'll be okay" PERFORMER "Amanda Marshall" INDEX 00 04:19:30FILE "Various - My Best Friend's Wedding OST\06 I'll be okay.wav" WAVE INDEX 01 00:00:00 TRACK 07 AUDIO TITLE "The way you look tonight" PERFORMER "Tony Bennett" ISRC USSM19700978 INDEX 00 04:55:72FILE "Various - My Best Friend's Wedding OST\07 The way you look tonight.wav" WAVE INDEX 01 00:00:00 TRACK 08 AUDIO TITLE "What the world needs now is love" PERFORMER "Jackie DeShannon" INDEX 00 03:23:27FILE "Various - My Best Friend's Wedding OST\08 What the world needs now is love.wav" WAVE INDEX 01 00:00:00 TRACK 09 AUDIO TITLE "I'll never fall in love again" PERFORMER "Mary Chapin Carpenter" ISRC USSM19700973 INDEX 00 03:12:10FILE "Various - My Best Friend's Wedding OST\09 I'll never fall in love again.wav" WAVE INDEX 01 00:00:00 TRACK 10 AUDIO TITLE "Always you" PERFORMER "Sophie Zelmani" INDEX 00 03:51:05FILE "Various - My Best Friend's Wedding OST\10 Always you.wav" WAVE INDEX 01 00:00:00 TRACK 11 AUDIO TITLE "If you wanna be happy" PERFORMER "Jimmy Soul" INDEX 00 02:50:08FILE "Various - My Best Friend's Wedding OST\11 If you wanna be happy.wav" WAVE INDEX 01 00:00:00 TRACK 12 AUDIO TITLE "I say a little prayer" PERFORMER "My Best Friend's Wedding Cast" ISRC USSM19700980 INDEX 00 02:19:58FILE "Various - My Best Friend's Wedding OST\12 I say a little prayer.wav" WAVE INDEX 01 00:00:00 TRACK 13 AUDIO TITLE "Suite from My best friend's wedding" PERFORMER "James Newton Howard" ISRC USSM19700979 INDEX 00 02:27:37FILE "Various - My Best Friend's Wedding OST\13 Suite from My best friend's wedding.wav" WAVE INDEX 01 00:00:00
 
REM GENRE SoundtrackREM DATE 1997REM DISCID A60AF90DREM COMMENT "ExactAudioCopy v0.99pb4"PERFORMER "Various"TITLE "My Best Friend's Wedding OST"FILE "01 I say a little prayer.wav" WAVE TRACK 01 AUDIO TITLE "I say a little prayer" PERFORMER "Diana King" ISRC USSM19700761 INDEX 01 00:00:00 TRACK 02 AUDIO TITLE "Wishin' and hopin'" PERFORMER "Ani DiFranco" ISRC USSM19700975 INDEX 00 03:35:10FILE "02 Wishin' and hopin'.wav" WAVE INDEX 01 00:00:00 TRACK 03 AUDIO TITLE "You don't know me" PERFORMER "Jann Arden" ISRC USSM19700976 INDEX 00 03:14:45FILE "03 You don't know me.wav" WAVE INDEX 01 00:00:00 TRACK 04 AUDIO TITLE "Tell him" PERFORMER "The Exciters" INDEX 00 03:25:55FILE "04 Tell him.wav" WAVE INDEX 01 00:00:00 TRACK 05 AUDIO TITLE "I just don't know what to do with myself" PERFORMER "Nicky Holland" ISRC USSM19700977 INDEX 00 02:33:20FILE "05 I just don't know what to do with myself.wav" WAVE INDEX 01 00:00:00 TRACK 06 AUDIO TITLE "I'll be okay" PERFORMER "Amanda Marshall" INDEX 00 04:19:30FILE "06 I'll be okay.wav" WAVE INDEX 01 00:00:00 TRACK 07 AUDIO TITLE "The way you look tonight" PERFORMER "Tony Bennett" ISRC USSM19700978 INDEX 00 04:55:72FILE "07 The way you look tonight.wav" WAVE INDEX 01 00:00:00 TRACK 08 AUDIO TITLE "What the world needs now is love" PERFORMER "Jackie DeShannon" INDEX 00 03:23:27FILE "08 What the world needs now is love.wav" WAVE INDEX 01 00:00:00 TRACK 09 AUDIO TITLE "I'll never fall in love again" PERFORMER "Mary Chapin Carpenter" ISRC USSM19700973 INDEX 00 03:12:10FILE "09 I'll never fall in love again.wav" WAVE INDEX 01 00:00:00 TRACK 10 AUDIO TITLE "Always you" PERFORMER "Sophie Zelmani" INDEX 00 03:51:05FILE "10 Always you.wav" WAVE INDEX 01 00:00:00 TRACK 11 AUDIO TITLE "If you wanna be happy" PERFORMER "Jimmy Soul" INDEX 00 02:50:08FILE "11 If you wanna be happy.wav" WAVE INDEX 01 00:00:00 TRACK 12 AUDIO TITLE "I say a little prayer" PERFORMER "My Best Friend's Wedding Cast" ISRC USSM19700980 INDEX 00 02:19:58FILE "12 I say a little prayer.wav" WAVE INDEX 01 00:00:00 TRACK 13 AUDIO TITLE "Suite from My best friend's wedding" PERFORMER "James Newton Howard" ISRC USSM19700979 INDEX 00 02:27:37FILE "13 Suite from My best friend's wedding.wav" WAVE INDEX 01 00:00:00


Трекер:  [ 08-Июл-2011 12:53 ]

  

Скачать .torrent

Размер .torrent файла 12 KB


Размер: 280 MB
Хэш (hash) релиза: d6484e9bf7a6092989255f2dc241ec8e08795432

Торренты, похожие на Свадьба лучшего друга My Best Friends Wedding скачать торрент

Форум Название Автор Размер S L Добавлен
Саундтреки ·· (Score) Свадьба лучшего друга / My Best Friend's Wedding (by James Newton Howard) [Promo Score]- 2000 (1997), FLAC (tracks+.cue), lossless Galfimbul 118054566113 MB 0 0 1336111980

09:13

4-Май-12

Саундтреки к фильмам и мультфильмам (mp3) ·· (Soundtrack) Свадьба лучшего друга / My Best Friend's Wedding (James Newton Howard & VA) - 1997 [MP3 320 kbps] Galfimbul 112548259107 MB 0 0 1292265883

21:44

13-Дек-10

Еще никто не оставлял запись к записи скачать торрент Свадьба лучшего друга My Best Friends Wedding . Будь первым!

!Обратная связь