Скачать через торрент музыку Баския Basquiat - 1996, APE бесплатно без регистрации torrent

Если у вас наблюдаются проблемы со скриншотами, переходом по ссылками, скачиванием торрентов - проблемы в блокировщике рекламы AdBlock. #хорошегоДня!


Статистика раздачи
Размер:  315 MB   |    Зарегистрирован:  6 лет 2 месяца   |    .torrent скачан:  40 раз   |   
Раздают:  1  
   
Загрузка...
 
Автор Сообщение

Galfimbul

avatar Galfimbul


Баския / Basquiat

Страна: US
Жанр: Soundtrack
Год выпуска: 1996
Формат: APE (image + .cue)
Битрейт аудио: lossless
Продолжительность: 55:04
Трэклист:
1. Michael Wincott - Van Gogh Boat (0:09)
2. Public Image Ltd. - Public Image (2:58)
3. Van Morrison - It's All Over Now, Baby Blue (3:47)
4. Nick Marion Taylor - Suicide Hotline (2:06)
5. The Toadies - I'm Not In Love (4:29)
6. PJ Harvey - Is That All There Is? (5:07)
7. Grandmaster Flash & Melle Mel - White Lines (Don't Don't Do It) (4:27)
8. Tripping Daisy - Rise (4:15)
9. Joy Division - These Days (3:27)
10. Brian Kelly - She Is Dancing (2:55)
11. Tom Waits - Tom Traubert's Blues (Four Sheets To The Wind In Copenhagen) (6:28)
12. David Bowie - Small Plot Of Land (2:48)
13. The Pogues - A Summer In Siam (4:06)
14. Gavin Friday - The Last Song I'll Ever Sing (3:50)
15. John Cale - Hallelujah (4:05)
 
Exact Audio Copy V0.99 prebeta 3 from 28. July 2007

Отчёт EAC об извлечении, выполненном 1. октября 2007, 9:09

Various / Basquiat

Дисковод: _NEC DVD_RW ND-3550A Adapter: 1 ID: 0

Режим чтения : ДостоверностьИспользование точного потока : ДаОтключение кэша аудио : ДаИспользование указателей C2 : Нет

Коррекция смещения при чтении : 48Способность читать области Lead-in и Lead-out : НетЗаполнение пропущенных сэмплов тишиной : ДаУдаление блоков с тишиной в начале и конце : НетПри вычислениях CRC использовались нулевые сэмплы : ДаИнтерфейс : Установленный внешний ASPI-интерфейс

Выходной формат : Внутренние WAV-операцииФормат сэмплов : 44.100 Гц; 16 бит; стерео

TOC извлечённого CD

Трек | Старт | Длительность | Начальный сектор | Конечный сектор --------------------------------------------------------------------- 1 | 0:00.00 | 0:09.55 | 0 | 729 2 | 0:09.55 | 2:58.07 | 730 | 14086 3 | 3:07.62 | 3:47.58 | 14087 | 31169 4 | 6:55.45 | 2:06.47 | 31170 | 40666 5 | 9:02.17 | 4:29.08 | 40667 | 60849 6 | 13:31.25 | 5:07.12 | 60850 | 83886 7 | 18:38.37 | 4:27.38 | 83887 | 103949 8 | 23:06.00 | 4:15.25 | 103950 | 123099 9 | 27:21.25 | 3:27.62 | 123100 | 138686 10 | 30:49.12 | 2:55.63 | 138687 | 151874 11 | 33:45.00 | 6:28.25 | 151875 | 180999 12 | 40:13.25 | 2:48.12 | 181000 | 193611 13 | 43:01.37 | 4:06.13 | 193612 | 212074 14 | 47:07.50 | 3:50.37 | 212075 | 229361 15 | 50:58.12 | 4:06.00 | 229362 | 247811

Характеристики диапазона извлечения и сообщения об ошибках

Выбранный диапазон

Имя файла C:\Documents and Settings\Администратор\Рабочий стол\torrent\Various - Basquiat [http://рутраскер].wav

Пиковый уровень 100.0 % Качество диапазона 100.0 % CRC копии E296C838 Копирование... OK

Ошибок не произошло

Конец отчёта


Трекер:  [ 08-Июл-2011 12:54 ]

  

Скачать .torrent

Размер .torrent файла 13 KB


Размер: 315 MB
Хэш (hash) релиза: 8ad3379949c76c32352a6d7c953553391e39e407

Еще никто не оставлял запись к записи скачать торрент Баския Basquiat - 1996, APE . Будь первым!

!Обратная связь