Скачать через торрент музыку Кошмар перед Рождеством The Nightmare Before Christmas бесплатно без регистрации torrent

Если у вас наблюдаются проблемы со скриншотами, переходом по ссылками, скачиванием торрентов - проблемы в блокировщике рекламы AdBlock. #хорошегоДня!


Статистика раздачи
Размер:  336 MB   |    Зарегистрирован:  6 лет 2 месяца   |    .torrent скачан:  57 раз   |   
Раздают:  1  
   
Загрузка...
 
Автор Сообщение

Galfimbul

avatar Galfimbul


The Nightmare Before Christmas (Danny Elfman)

Жанр: CSO
Год выпуска диска: 1993
Производитель диска: Italia
Аудио кодек: WAVPack
Тип рипа: image+.cue
Битрейт аудио: lossless
Продолжительность: 01:00:57

Источник:ослик

Трэклист:

01. "Overture" - 1:47
02. "Introduzione" - Narrazione di Renato Zero - 0:48
03. "Questo è Halloween" - I Cittadini di Halloween - 3:16
04. "Re del Blu, Re del Mai" - Renato Zero - 3:15
05. "Dottor Finkelstein" - 2:36
06. "Cos'è" - Renato Zero - 3:05
07. "Assemblea Cittadina" - Renato Zero e il Cast - 3:01
08. "Jack e Sally" - 5:17
09. "L'ossessione di Jack - Renato Zero e il Cast - 2:47
10. "Il Rapimento di Babbo Nachele" - 3:02
11. "Far Natale" - Renato Zero e i Cittadini di Halloween - 3:58
12. "Il Prigioniero" - 3:04
13. "Mister Bau Bau" - Andrea Surdi - 3:17
14. "La Canzone di Sally" - Marjorie Biondo - 1:48
15. "La Vigilia di Natale" - 4:44
16. "Povero Jack" - Renato Zero - 2:31
17. "La Liberazione di Babbo Nachele" - Renato Zero - 3:38
18. "Finale (Reprise)" - DRenato Zero e i Cittadini di Halloween - 2:45
19. "Chiusura" - 1:14
20. "Tema finale" - 5:04
Exact Audio Copy V0.99 prebeta 4 from 23. January 2008

EAC extraction logfile from 3. December 2008, 13:54

Danny Elfman / Tim Burton's Nightmare Before Christmas

Used drive : LITE-ON DVDRW SHW-1635S Adapter: 0 ID: 0

Read mode : Secure
Utilize accurate stream : Yes
Defeat audio cache : Yes
Make use of C2 pointers : No

Read offset correction : 6
Overread into Lead-In and Lead-Out : No
Fill up missing offset samples with silence : Yes
Delete leading and trailing silent blocks : No
Null samples used in CRC calculations : Yes
Used interface : Installed external ASPI interface

Used output format : Internal WAV Routines
Sample format : 44.100 Hz; 16 Bit; Stereo

TOC of the extracted CD

Track | Start | Length | Start sector | End sector
---------------------------------------------------------
1 | 0:00.00 | 1:47.22 | 0 | 8046
2 | 1:47.22 | 0:48.36 | 8047 | 11682
3 | 2:35.58 | 3:16.14 | 11683 | 26396
4 | 5:51.72 | 3:14.23 | 26397 | 40969
5 | 9:06.20 | 2:36.30 | 40970 | 52699
6 | 11:42.50 | 3:05.28 | 52700 | 66602
7 | 14:48.03 | 3:00.52 | 66603 | 80154
8 | 17:48.55 | 5:17.04 | 80155 | 103933
9 | 23:05.59 | 2:46.33 | 103934 | 116416
10 | 25:52.17 | 3:02.34 | 116417 | 130100
11 | 28:54.51 | 3:58.10 | 130101 | 147960
12 | 32:52.61 | 3:03.60 | 147961 | 161745
13 | 35:56.46 | 3:16.74 | 161746 | 176519
14 | 39:13.45 | 1:47.65 | 176520 | 184609
15 | 41:01.35 | 4:43.62 | 184610 | 205896
16 | 45:45.22 | 2:31.31 | 205897 | 217252
17 | 48:16.53 | 3:38.19 | 217253 | 233621
18 | 51:54.72 | 2:44.17 | 233622 | 245938
19 | 54:39.14 | 1:14.13 | 245939 | 251501
20 | 55:53.27 | 5:04.09 | 251502 | 274310

Range status and errors

Selected range

Filename E:\Danny Elfman - Tim Burton's Nightmare Before Christmas (Italian Version)\Tim Burton's Nightmare Before Christmas (Italian Version).wav

Peak level 99.8 %
Range quality 100.0 %
Copy CRC E3D11098
Copy OK

No errors occurred

End of status report
Доп. информация: Сканы внутри.
Instrumental Disney


Трекер:  [ 08-Июл-2011 12:56 ]

  

Скачать .torrent

Размер .torrent файла 14 KB


Размер: 336 MB
Хэш (hash) релиза: e88e5e3b22f82a6b1c6218430ff10a79dcf3d83c

Торренты, похожие на Кошмар перед Рождеством The Nightmare Before Christmas скачать торрент

Форум Название Автор Размер S L Добавлен
Саундтреки к фильмам и мультфильмам (mp3) ·· (Soundtrack) Кошмар Перед Рождеством / The Nightmare Before Christmas (Danny Elfman) - русский перевод - 2005 (1993), MP3, 320 kbps Galfimbul 124489034119 MB 0 0 1418148373

21:06

9-Дек-14

Саундтреки к фильмам и мультфильмам (mp3) ·· (OST) Кошмар Перед Рождеством [Rus] / The Nightmare Before Christmas Russian Version,mp3,192 Galfimbul 4202496040 MB 0 0 1292265360

21:36

13-Дек-10

Еще никто не оставлял запись к записи скачать торрент Кошмар перед Рождеством The Nightmare Before Christmas . Будь первым!

!Обратная связь