Скачать через торрент музыку Мне бы в небо Up In The Air бесплатно без регистрации torrent

Если у вас наблюдаются проблемы со скриншотами, переходом по ссылками, скачиванием торрентов - проблемы в блокировщике рекламы AdBlock. #хорошегоДня!


Статистика раздачи
Размер:  231 MB   |    Зарегистрирован:  6 лет 2 месяца   |    .torrent скачан:  37 раз   |   
Раздают:  1  
   
Загрузка...
 
Автор Сообщение

Galfimbul

avatar Galfimbul


Мне бы в небо / Up In The Air
Rolfe Kent & Various Artists

Жанр: Soundtrack
Год выпуска диска: 2009
Производитель диска: Rhino
Аудио кодек: FLAC
Тип рипа: tracks+.cue
Битрейт аудио: lossless
Продолжительность: 00:43:11
Рип: What.CD
Трэклист:
01. Sharon Jones & The Dap-Kings - This Land Is Your Land [04:28]
02. Rolfe Kent - Security Ballet [01:31]
03. Dan Auerbach - Goin' Home [04:54]
04. Crosby, Stills, Nash & Young - Taken At All [02:56]
05. Elliott Smith - Angel In The Show [02:36]
06. Sad Brad Smith - Help Yourself [03:23]
07. Charles Atlas - Genova [07:36]
08. Rolfe Kent - Lost In Detroit [01:36]
09. Roy Buchanan - Thank You Lord [02:25]
10. Graham Nash - Be Yourself [02:58]
11. Charles Atlas - The Snow Before Us [03:13]
12. Kevin Renick - Up In The Air [05:29]
 
Exact Audio Copy V0.99 prebeta 5 from 4. May 2009

EAC extraction logfile from 18. January 2010, 10:32

Various / Up in The Air

Used drive : PHILIPS DVD+-RW DVD8801 Adapter: 0 ID: 1

Read mode : SecureUtilize accurate stream : YesDefeat audio cache : YesMake use of C2 pointers : No

Read offset correction : 618Overread into Lead-In and Lead-Out : NoFill up missing offset samples with silence : YesDelete leading and trailing silent blocks : NoNull samples used in CRC calculations : YesUsed interface : Native Win32 interface for Win NT & 2000Gap handling : Appended to previous track

Used output format : User Defined EncoderSelected bitrate : 192 kBit/sQuality : HighAdd ID3 tag : NoCommand line compressor : C:\Program Files\Exact Audio Copy\Flac\flac.exeAdditional command line options : -8 -A tukey(0.25) -A gauss(0.1875) -b 4096 -V -T "artist=%a" -T "title=%t" -T "album=%g" -T "date=%y" -T "tracknumber=%n" -T "genre=%m" %s

TOC of the extracted CD

Track | Start | Length | Start sector | End sector --------------------------------------------------------- 1 | 0:00.00 | 4:28.53 | 0 | 20152 2 | 4:28.53 | 1:31.36 | 20153 | 27013 3 | 6:00.14 | 4:54.41 | 27014 | 49104 4 | 10:54.55 | 2:56.20 | 49105 | 62324 5 | 13:51.00 | 2:36.53 | 62325 | 74077 6 | 16:27.53 | 3:23.52 | 74078 | 89354 7 | 19:51.30 | 7:36.66 | 89355 | 123620 8 | 27:28.21 | 1:36.16 | 123621 | 130836 9 | 29:04.37 | 2:25.72 | 130837 | 141783 10 | 31:30.34 | 2:58.44 | 141784 | 155177 11 | 34:29.03 | 3:13.03 | 155178 | 169655 12 | 37:42.06 | 5:29.12 | 169656 | 194342

Track 1

Filename D:\EACtmp\ 01 - Sharon Jones & The Dap-Kings - This Land Is Your Land.wav

Pre-gap length 0:00:02.00

Peak level 97.7 % Track quality 100.0 % Test CRC 2ACD762A Copy CRC 2ACD762A Track not present in AccurateRip database Copy OK

Track 2

Filename D:\EACtmp\ 02 - Rolfe Kent - Security Ballet.wav

Pre-gap length 0:00:03.86

Peak level 97.7 % Track quality 100.0 % Test CRC F8505F69 Copy CRC F8505F69 Track not present in AccurateRip database Copy OK

Track 3

Filename D:\EACtmp\ 03 - Dan Auerbach - Goin' Home.wav

Pre-gap length 0:00:03.86

Peak level 97.7 % Track quality 99.9 % Test CRC AEA1EC2E Copy CRC AEA1EC2E Track not present in AccurateRip database Copy OK

Track 4

Filename D:\EACtmp\ 04 - Crosby, Stills, Nash & Young - Taken At All.wav

Pre-gap length 0:00:03.86

Peak level 97.7 % Track quality 100.0 % Test CRC 6ECF0C7F Copy CRC 6ECF0C7F Track not present in AccurateRip database Copy OK

Track 5

Filename D:\EACtmp\ 05 - Elliott Smith - Angel In The Snow.wav

Pre-gap length 0:00:03.86

Peak level 98.8 % Track quality 99.9 % Test CRC A925EC98 Copy CRC A925EC98 Track not present in AccurateRip database Copy OK

Track 6

Filename D:\EACtmp\ 06 - Sad Brad Smith - Help Yourself.wav

Pre-gap length 0:00:03.86

Peak level 97.7 % Track quality 100.0 % Test CRC 41A13F81 Copy CRC 41A13F81 Track not present in AccurateRip database Copy OK

Track 7

Filename D:\EACtmp\ 07 - Charles Atlas - Genova.wav

Pre-gap length 0:00:03.86

Peak level 97.7 % Track quality 100.0 % Test CRC 972B9DDE Copy CRC 972B9DDE Track not present in AccurateRip database Copy OK

Track 8

Filename D:\EACtmp\ 08 - Rolfe Kent - Lost In Detroit.wav

Pre-gap length 0:00:03.86

Peak level 97.7 % Track quality 100.0 % Test CRC FFE713BA Copy CRC FFE713BA Track not present in AccurateRip database Copy OK

Track 9

Filename D:\EACtmp\ 09 - Roy Buchanan - Thank You Lord.wav

Pre-gap length 0:00:03.86

Peak level 97.0 % Track quality 100.0 % Test CRC AD35C8B9 Copy CRC AD35C8B9 Track not present in AccurateRip database Copy OK

Track 10

Filename D:\EACtmp\ 10 - Graham Nash - Be Yourself.wav

Pre-gap length 0:00:03.86

Peak level 97.7 % Track quality 100.0 % Test CRC DEC94FCC Copy CRC DEC94FCC Track not present in AccurateRip database Copy OK

Track 11

Filename D:\EACtmp\ 11 - Charles Atlas - The Snow Before Us.wav

Pre-gap length 0:00:03.86

Peak level 87.0 % Track quality 100.0 % Test CRC 86C6C8B3 Copy CRC 86C6C8B3 Track not present in AccurateRip database Copy OK

Track 12

Filename D:\EACtmp\ 12 - Kevin Renick - Up In The Air.wav

Pre-gap length 0:00:03.86

Peak level 97.7 % Track quality 100.0 % Test CRC E6D02356 Copy CRC E6D02356 Track not present in AccurateRip database Copy OK

None of the tracks are present in the AccurateRip database

No errors occurred

End of status report


Трекер:  [ 08-Июл-2011 12:57 ]

  

Скачать .torrent

Размер .torrent файла 19 KB


Размер: 231 MB
Хэш (hash) релиза: ec78734dd807f8e16d0a86381db3b21773bde90e

Еще никто не оставлял запись к записи скачать торрент Мне бы в небо Up In The Air . Будь первым!

!Обратная связь