Скачать через торрент музыку Брат якудзы Brother бесплатно без регистрации torrent

Если у вас наблюдаются проблемы со скриншотами, переходом по ссылками, скачиванием торрентов - проблемы в блокировщике рекламы AdBlock. #хорошегоДня!


Статистика раздачи
Размер:  265 MB   |    Зарегистрирован:  6 лет 2 месяца   |    .torrent скачан:  36 раз   |   
Раздают:  1  
   
Загрузка...
 
Автор Сообщение

Galfimbul

avatar Galfimbul


Joe Hisaishi
Brother

Жанр: Score
Год выпуска диска: 2000
Производитель диска: Universal
Аудио кодек: FLAC
Тип рипа: tracks+.cue
Битрейт аудио: lossless
Продолжительность: 00:49:11
Рип: WhatCD



Трэклист:
01. Drifter in Lax
02. Solitude
03. Tattoo
04. Death Spiral
05. Party - one year later
06. On the shore
07. Blood brother
08. Raging men
09. Beyond the control
10. Wipe out
11. Liberation from the death
12. I love you Aniki
13. Ballade
14. Brother
15. Brother - remix version
 
Exact Audio Copy V0.99 prebeta 3 from 28. July 2007

EAC extraction logfile from 2. September 2007, 10:42

Ablaze My Sorrow / Anger, Hate And Fury

Used drive : TSSTcorpCD/DVDW SH-S183A Adapter: 2 ID: 0

Read mode : SecureUtilize accurate stream : YesDefeat audio cache : YesMake use of C2 pointers : No

Read offset correction : 6Overread into Lead-In and Lead-Out : NoFill up missing offset samples with silence : YesDelete leading and trailing silent blocks : NoNull samples used in CRC calculations : YesUsed interface : Installed external ASPI interfaceGap handling : Appended to previous track

Used output format : User Defined EncoderSelected bitrate : 128 kBit/sQuality : HighAdd ID3 tag : NoCommand line compressor : C:\Program\Exact Audio Copy\Flac\bin\flac.exeAdditional command line options : -V -8 -T "artist=%a" -T "title=%t" -T "album=%g" -T "date=%y" -T "tracknumber=%n" -T "genre=%m" %s

TOC of the extracted CD

Track | Start | Length | Start sector | End sector --------------------------------------------------------- 1 | 0:00.00 | 4:10.49 | 0 | 18798 2 | 4:10.49 | 3:33.41 | 18799 | 34814 3 | 7:44.15 | 6:03.06 | 34815 | 62045 4 | 13:47.21 | 4:47.64 | 62046 | 83634 5 | 18:35.10 | 6:26.42 | 83635 | 112626 6 | 25:01.52 | 4:31.52 | 112627 | 133003 7 | 29:33.29 | 2:55.36 | 133004 | 146164 8 | 32:28.65 | 3:46.69 | 146165 | 163183 9 | 36:15.59 | 4:15.52 | 163184 | 182360 10 | 40:31.36 | 3:29.15 | 182361 | 198050 11 | 44:00.51 | 3:56.54 | 198051 | 215804 12 | 47:57.30 | 6:00.71 | 215805 | 242875 13 | 53:58.26 | 3:10.55 | 242876 | 257180 14 | 57:09.06 | 6:20.47 | 257181 | 285727 15 | 63:29.53 | 7:40.60 | 285728 | 320287 16 | 73:42.38 | 3:52.60 | 331688 | 349147

Track 1

Filename E:\Downloads\???.[Joe.Hisaishi].-.Brother.??\01 Drifter in LAX.wav

Pre-gap length 0:00:02.00

Peak level 99.3 % Track quality 100.0 % Test CRC 6459A8F6 Copy CRC 6459A8F6 Copy OK

Track 2

E:\Downloads\???.[Joe.Hisaishi].-.Brother.??\02 Solitude.wav

Peak level 98.1 % Track quality 100.0 % Test CRC 5A666443 Copy CRC 5A666443 Copy OK

Track 3

E:\Downloads\???.[Joe.Hisaishi].-.Brother.??\03 Tattoo.wav

Peak level 99.9 % Track quality 100.0 % Test CRC 219825E7 Copy CRC 219825E7 Copy OK

Track 4

E:\Downloads\???.[Joe.Hisaishi].-.Brother.??\04 Death Spiral.wav

Peak level 99.9 % Track quality 100.0 % Test CRC A4AD2016 Copy CRC A4AD2016 Copy OK

Track 5

E:\Downloads\???.[Joe.Hisaishi].-.Brother.??\05 Party - one year later.wav

Peak level 100.0 % Track quality 100.0 % Test CRC 8579A72F Copy CRC 8579A72F Copy OK

Track 6

E:\Downloads\???.[Joe.Hisaishi].-.Brother.??\06 On the shore.wav

Peak level 100.0 % Track quality 99.9 % Test CRC D037C499 Copy CRC D037C499 Copy OK

Track 7

E:\Downloads\???.[Joe.Hisaishi].-.Brother.??\07 Blood brother.wav

Peak level 70.3 % Track quality 100.0 % Test CRC F41A7389 Copy CRC F41A7389 Copy OK

Track 8

E:\Downloads\???.[Joe.Hisaishi].-.Brother.??\08 Raging men.wav

Peak level 100.0 % Track quality 100.0 % Test CRC 2A31BB42 Copy CRC 2A31BB42 Copy OK

Track 9

E:\Downloads\???.[Joe.Hisaishi].-.Brother.??\09 Beyond the control.wav

Peak level 99.3 % Track quality 100.0 % Test CRC 7A190FCB Copy CRC 7A190FCB Copy OK

Track 10

E:\Downloads\???.[Joe.Hisaishi].-.Brother.??\10 Wipe out.wav

Peak level 99.3 % Track quality 100.0 % Test CRC CEFD0E61 Copy CRC CEFD0E61 Copy OK

Track 11

E:\Downloads\???.[Joe.Hisaishi].-.Brother.??\11 Liberation from the death.wav

Peak level 98.3 % Track quality 100.0 % Test CRC AFE65E77 Copy CRC AFE65E77 Copy OK

Трек 12

E:\Downloads\???.[Joe.Hisaishi].-.Brother.??\12 I love you Aniki.wav

Peak level 94.4 % Track quality 99.9 % Test CRC 26D05010 Copy CRC 26D05010 Copy OK

Трек 13

E:\Downloads\???.[Joe.Hisaishi].-.Brother.??\13 Ballade.wav

Peak level 96.6 % Track quality 100.0 % Test CRC BB89F470 Copy CRC BB89F470 Copy OK

Трек 14

E:\Downloads\???.[Joe.Hisaishi].-.Brother.??\14 Brother.wav

Peak level 94.4 % Track quality 100.0 % Test CRC 60866DD7 Copy CRC 60866DD7 Copy OK

Трек 15

E:\Downloads\???.[Joe.Hisaishi].-.Brother.??\15 Brother - remix version .wav

Peak level 96.6 % Track quality 100.0 % Test CRC 71EA7552 Copy CRC 71EA7552 Copy OK

No errors occurred

End of status report
 
AUDIOCHECKER v2.0 beta (build 457) - by Dester - opdester@freemail.hu~~~~~~~~~~~~~~~~~~~~~~~~~~~~~~~~~~

01 -===- ...\01 Drifter in Lax.flac Extracted successfully Conclusion: this track is CDDA with probability 92% Tempfile successfully deleted.

02 -===- ...\02 Solitude.flac Extracted successfully Conclusion: this track is CDDA with probability 85% Tempfile successfully deleted.

03 -===- ...\03 Tattoo.flac Extracted successfully Conclusion: this track is CDDA with probability 54% Tempfile successfully deleted.

04 -===- ...\04 Death Spiral.flac Extracted successfully Conclusion: this track is CDDA with probability 100% Tempfile successfully deleted.

05 -===- ...\05 Party - one year later.flac Extracted successfully Conclusion: this track is CDDA with probability 100% Tempfile successfully deleted.

06 -===- ...\06 On the shore.flac Extracted successfully Conclusion: this track is CDDA with probability 100% Tempfile successfully deleted.

07 -===- ...\07 Blood brother.flac Extracted successfully Conclusion: this track is CDDA with probability 100% Tempfile successfully deleted.

08 -===- ...\08 Raging men.flac Extracted successfully Conclusion: this track is CDDA with probability 100% Tempfile successfully deleted.

09 -===- ...\09 Beyond the control.flac Extracted successfully Conclusion: this track is CDDA with probability 100% Tempfile successfully deleted.

10 -===- ...\10 Wipe out.flac Extracted successfully Conclusion: this track is CDDA with probability 87% Tempfile successfully deleted.

11 -===- ...\11 Liberation from the death.flac Extracted successfully Conclusion: this track is CDDA with probability 100% Tempfile successfully deleted.

12 -===- ...\12 I love you Aniki.flac Extracted successfully Conclusion: this track is CDDA with probability 99% Tempfile successfully deleted.

13 -===- ...\13 Ballade.flac Extracted successfully Conclusion: this track is CDDA with probability 54% Tempfile successfully deleted.

14 -===- ...\14 Brother.flac Extracted successfully Conclusion: this track is CDDA with probability 100% Tempfile successfully deleted.

15 -===- ...\15 Brother - remix version.flac Extracted successfully Conclusion: this track is CDDA with probability 100% Tempfile successfully deleted.


Трекер:  [ 08-Июл-2011 12:57 ]

  

Скачать .torrent

Размер .torrent файла 12 KB


Размер: 265 MB
Хэш (hash) релиза: 20c2dfc13eec0c32a88c62b3e9bdd61d35fdafe4

Торренты, похожие на Брат якудзы Brother скачать торрент

Форум Название Автор Размер S L Добавлен
Саундтреки к фильмам и мультфильмам (mp3) ·· (Score) Брат якудзы / Brother (Joe Hisaishi) - 2000, MP3 (tracks), 320 kbps Galfimbul 118131089113 MB 0 0 1292266248

21:50

13-Дек-10

Еще никто не оставлял запись к записи скачать торрент Брат якудзы Brother . Будь первым!

!Обратная связь