Скачать через торрент музыку Basic Instinct бесплатно без регистрации torrent

Если у вас наблюдаются проблемы со скриншотами, переходом по ссылками, скачиванием торрентов - проблемы в блокировщике рекламы AdBlock. #хорошегоДня!


Статистика раздачи
Размер:  340 MB   |    Зарегистрирован:  6 лет 2 месяца   |    .torrent скачан:  72 раза   |   
Раздают:  1  
   
Загрузка...
 
Автор Сообщение

Galfimbul

avatar Galfimbul


Basic Instinct / Основной инстинкт

Жанр: Score
Год выпуска диска: 1992
Производитель диска: USA
Аудио кодек: FLAC
Тип рипа: tracks+.cue
Битрейт аудио: lossless
Продолжительность: 1:14:30
01. Jerry Goldsmith - Main Title
02. Jerry Goldsmith - First Victim
03. Jerry Goldsmith - Catherine & Roxy
04. Jerry Goldsmith - Shadows
05. Jerry Goldsmith - Don't Smoke
07. Jerry Goldsmith - Crossed Legs
08. Jerry Goldsmith - Beth & Nick
09. Jerry Goldsmith - Night Life
10. Jerry Goldsmith - Home Visit
11. Jerry Goldsmith - Your Wife Knew
12. Jerry Goldsmith - Untitled
13. Jerry Goldsmith - That's Real Music
14. Jerry Goldsmith - One Shot
15. Jerry Goldsmith - Kitchen Help
16. Jerry Goldsmith - Pillow Talk
17. Jerry Goldsmith - Morning After
18. Jerry Goldsmith - Roxy Loses
19. Jerry Goldsmith - Catherine's Sorrow
20. Jerry Goldsmith - Wrong Name
21. Jerry Goldsmith - She's Really Sick
22. Jerry Goldsmith - It Won't Sell
23. Jerry Goldsmith - Games Are Over
24. Jerry Goldsmith - Evidence
25. Jerry Goldsmith - Unending Story / End Credits
26. Jerry Goldsmith - First Victim (alternate version)

Exact Audio Copy V0.99 prebeta 5 from 4. May 2009

EAC extraction logfile from 3. August 2009, 16:30

Jerry Goldsmith / Basic Instinct (Prometheus expanded score)

Used drive : Optiarc DVD RW AD-7170A Adapter: 0 ID: 0

Read mode : Secure
Utilize accurate stream : Yes
Defeat audio cache : Yes
Make use of C2 pointers : No

Read offset correction : 48
Overread into Lead-In and Lead-Out : No
Fill up missing offset samples with silence : Yes
Delete leading and trailing silent blocks : No
Null samples used in CRC calculations : Yes
Used interface : Native Win32 interface for Win NT & 2000
Gap handling : Appended to previous track

Used output format : User Defined Encoder
Selected bitrate : 320 kBit/s
Quality : High
Add ID3 tag : No
Command line compressor : C:\Program Files\Exact Audio Copy\Flac\flac.exe
Additional command line options : -8 -V -T "ARTIST=%a" -T "TITLE=%t" -T "ALBUM=%g" -T "DATE=%y" -T "TRACKNUMBER=%n" -T "GENRE=%m" -T "COMMENT=EAC FLAC -8" %s

TOC of the extracted CD

Track | Start | Length | Start sector | End sector
---------------------------------------------------------
1 | 0:00.00 | 2:15.49 | 0 | 10173
2 | 2:15.49 | 1:41.48 | 10174 | 17796
3 | 3:57.22 | 5:16.53 | 17797 | 41549
4 | 9:14.00 | 0:43.70 | 41550 | 44844
5 | 9:57.70 | 0:51.63 | 44845 | 48732
6 | 10:49.58 | 2:48.50 | 48733 | 61382
7 | 13:38.33 | 4:51.74 | 61383 | 83281
8 | 18:30.32 | 2:23.71 | 83282 | 94077
9 | 20:54.28 | 6:04.58 | 94078 | 121435
10 | 26:59.11 | 1:15.19 | 121436 | 127079
11 | 28:14.30 | 1:46.65 | 127080 | 135094
12 | 30:01.20 | 0:54.66 | 135095 | 139210
13 | 30:56.11 | 0:29.45 | 139211 | 141430
14 | 31:25.56 | 1:28.58 | 141431 | 148088
15 | 32:54.39 | 4:00.33 | 148089 | 166121
16 | 36:54.72 | 5:01.26 | 166122 | 188722
17 | 41:56.23 | 2:31.42 | 188723 | 200089
18 | 44:27.65 | 3:39.47 | 200090 | 216561
19 | 48:07.37 | 2:43.45 | 216562 | 228831
20 | 50:51.07 | 2:24.40 | 228832 | 239671
21 | 53:15.47 | 1:33.00 | 239672 | 246646
22 | 54:48.47 | 1:03.59 | 246647 | 251430
23 | 55:52.31 | 5:55.02 | 251431 | 278057
24 | 61:47.33 | 1:41.07 | 278058 | 285639
25 | 63:28.40 | 9:27.64 | 285640 | 328228
26 | 72:56.29 | 1:34.00 | 328229 | 335278

Track 1

Filename K:\Basic Instinct\ 01. Jerry Goldsmith – Main Title.wav

Pre-gap length 0:00:02.00

Peak level 45.7 %
Track quality 100.0 %
Test CRC 32B52444
Copy CRC 32B52444
Copy OK

Track 2

Filename K:\Basic Instinct\ 02. Jerry Goldsmith – First Victim.wav

Peak level 94.1 %
Track quality 100.0 %
Test CRC 431584E9
Copy CRC 431584E9
Copy OK

Track 3

Filename K:\Basic Instinct\ 03. Jerry Goldsmith – Catherine & Roxy.wav

Peak level 42.7 %
Track quality 100.0 %
Test CRC 863F280E
Copy CRC 863F280E
Copy OK

Track 4

Filename K:\Basic Instinct\ 04. Jerry Goldsmith – Shadows.wav

Peak level 11.8 %
Track quality 99.5 %
Test CRC 0D1D6595
Copy CRC 0D1D6595
Copy OK

Track 5

Filename K:\Basic Instinct\ 05. Jerry Goldsmith – Profile.wav

Peak level 20.2 %
Track quality 100.0 %
Test CRC FB62A51D
Copy CRC FB62A51D
Copy OK

Track 6

Filename K:\Basic Instinct\ 06. Jerry Goldsmith – Don't Smoke.wav

Peak level 35.4 %
Track quality 99.9 %
Test CRC 92456885
Copy CRC 92456885
Copy OK

Track 7

Filename K:\Basic Instinct\ 07. Jerry Goldsmith – Crossed Legs.wav

Peak level 57.5 %
Track quality 100.0 %
Test CRC 976EBF78
Copy CRC 976EBF78
Copy OK

Track 8

Filename K:\Basic Instinct\ 08. Jerry Goldsmith – Beth & Nick.wav

Peak level 80.1 %
Track quality 100.0 %
Test CRC D5CE743A
Copy CRC D5CE743A
Copy OK

Track 9

Filename K:\Basic Instinct\ 09. Jerry Goldsmith – Night Life.wav

Peak level 97.4 %
Track quality 100.0 %
Test CRC 145B9AA9
Copy CRC 145B9AA9
Copy OK

Track 10

Filename K:\Basic Instinct\ 10. Jerry Goldsmith – Home Visit.wav

Peak level 56.8 %
Track quality 100.0 %
Test CRC 0D2B25A4
Copy CRC 0D2B25A4
Copy OK

Track 11

Filename K:\Basic Instinct\ 11. Jerry Goldsmith – Your Wife Knew.wav

Peak level 42.3 %
Track quality 100.0 %
Test CRC AFE38CA8
Copy CRC 81257F6B
Copy OK

Track 12

Filename K:\Basic Instinct\ 12. Jerry Goldsmith – Untitled.wav

Peak level 29.9 %
Track quality 100.0 %
Test CRC 46D9E15D
Copy CRC 46D9E15D
Copy OK

Track 13

Filename K:\Basic Instinct\ 13. Jerry Goldsmith – That's Real Music.wav

Peak level 99.6 %
Track quality 100.0 %
Test CRC 0D437021
Copy CRC 0D437021
Copy OK

Track 14

Filename K:\Basic Instinct\ 14. Jerry Goldsmith – One Shot.wav

Peak level 69.4 %
Track quality 100.0 %
Test CRC DBDDAED0
Copy CRC DBDDAED0
Copy OK

Track 15

Filename K:\Basic Instinct\ 15. Jerry Goldsmith – Kitchen Help.wav

Peak level 61.6 %
Track quality 100.0 %
Test CRC AA6C45D8
Copy CRC 677C05D9
Copy OK

Track 16

Filename K:\Basic Instinct\ 16. Jerry Goldsmith – Pillow Talk.wav

Peak level 84.2 %
Track quality 100.0 %
Test CRC 2B493CA5
Copy CRC 2B493CA5
Copy OK

Track 17

Filename K:\Basic Instinct\ 17. Jerry Goldsmith – Morning After.wav

Peak level 54.1 %
Track quality 100.0 %
Test CRC 76AA2546
Copy CRC 76AA2546
Copy OK

Track 18

Filename K:\Basic Instinct\ 18. Jerry Goldsmith – Roxy Loses.wav

Peak level 98.9 %
Track quality 100.0 %
Test CRC B42BE47F
Copy CRC B42BE47F
Copy OK

Track 19

Filename K:\Basic Instinct\ 19. Jerry Goldsmith – Catherine's Sorrow.wav

Peak level 43.9 %
Track quality 100.0 %
Test CRC 5DAD9A70
Copy CRC 5DAD9A70
Copy OK

Track 20

Filename K:\Basic Instinct\ 20. Jerry Goldsmith – Wrong Name.wav

Peak level 96.8 %
Track quality 100.0 %
Test CRC 875AD37E
Copy CRC 875AD37E
Copy OK

Track 21

Filename K:\Basic Instinct\ 21. Jerry Goldsmith – She's Really Sick.wav

Peak level 97.9 %
Track quality 100.0 %
Test CRC EE870089
Copy CRC EE870089
Copy OK

Track 22

Filename K:\Basic Instinct\ 22. Jerry Goldsmith – It Won't Sell.wav

Peak level 38.7 %
Track quality 100.0 %
Test CRC D5CEBAD5
Copy CRC D5CEBAD5
Copy OK

Track 23

Filename K:\Basic Instinct\ 23. Jerry Goldsmith – Games Are Over.wav

Peak level 99.4 %
Track quality 100.0 %
Test CRC 8A11F7CA
Copy CRC 8A11F7CA
Copy OK

Track 24

Filename K:\Basic Instinct\ 24. Jerry Goldsmith – Evidence.wav

Peak level 42.8 %
Track quality 100.0 %
Test CRC 69C6471C
Copy CRC 69C6471C
Copy OK

Track 25

Filename K:\Basic Instinct\ 25. Jerry Goldsmith – Unending Story , End Credits.wav

Peak level 99.9 %
Track quality 100.0 %
Test CRC 384AEFCD
Copy CRC 384AEFCD
Copy OK

Track 26

Filename K:\Basic Instinct\ 26. Jerry Goldsmith – First Victim (alternate version).wav

Peak level 98.5 %
Track quality 99.8 %
Test CRC 2576660F
Copy CRC 2576660F
Copy OK

No errors occurred

End of status report


Трекер:  [ 08-Июл-2011 12:58 ]

  

Скачать .torrent

Размер .torrent файла 16 KB


Размер: 340 MB
Хэш (hash) релиза: cd56c439c576c7de026be458af2786abcad52859

Торренты, похожие на Basic Instinct скачать торрент

Форум Название Автор Размер S L Добавлен
Rap, Hip-Hop, R'n'B (video) ·· Ciara - Basic Instinct (U Got Me) [2010 г., R'n'B, Hip-Hop, WebRip] Солнышко 5666238254 MB 0 0 1294834408

15:13

12-Янв-11

Электронная музыка (lossless) ·· (Trance, Progressive Trance) Armin van Buuren - 002 Basic Instinct - 2001, FLAC (tracks), lossless Alik15 10860041211.01 GB 0 0 1291146034

22:40

30-Ноя-10

Еще никто не оставлял запись к записи скачать торрент Basic Instinct . Будь первым!

!Обратная связь