Скачать через торрент музыку Ilan Eshkeri - Stardust - 2007, APE бесплатно без регистрации torrent

Если у вас наблюдаются проблемы со скриншотами, переходом по ссылками, скачиванием торрентов - проблемы в блокировщике рекламы AdBlock. #хорошегоДня!


Статистика раздачи
Размер:  292 MB   |    Зарегистрирован:  6 лет 2 месяца   |    .torrent скачан:  36 раз   |   
Раздают:  1  
   
Загрузка...
 
Автор Сообщение

Galfimbul

avatar Galfimbul


(OST) Ilan Eshkeri - Stardust



Жанр: Soundtrack
Год выпуска диска: 2007
Производитель диска: USA
Аудио кодек: APE
Тип рипа: image+.cue
Битрейт аудио: lossless
Трэклист:

01. Prologue (Through The Wall) (03:45)
02. Snowdrop (02:46)
03. Tristan (00:40)
04. Shooting Star (03:26)
05. Three Witches (02:42)
06. Yvaine (02:48)
07. Septimus (01:22)
08. Creating The Inn (01:58)
09. Lamia's Inn (08:04)
10. Cap'n' Shakespeare (01:27)
11. Flying Vessel (03:41)
12. Cap'n's At The Helm (01:01)
13. Tristan & Yvaine (02:05)
14. Pirate Fight (02:03)
15. The Mouse (02:26)
16. Lamia's Lair (03:57)
17. Lamia's Doll (01:41)
18. Zombie Fight (01:08)
19. The Star Shines (03:21)
20. Coronation (02:32)
21. Epilogue (00:52)

Доп. информация:
Exact Audio Copy V0.99 prebeta 3 from 28. July 2007

EAC extraction logfile from 21. December 2007, 18:37

Ilan Eshkeri / Stardust

Used drive : LITE-ON CD-RW SOHR-5238S Adapter: 0 ID: 3

Read mode : Secure
Utilize accurate stream : Yes
Defeat audio cache : Yes
Make use of C2 pointers : No

Read offset correction : 6
Overread into Lead-In and Lead-Out : No
Fill up missing offset samples with silence : Yes
Delete leading and trailing silent blocks : No
Null samples used in CRC calculations : Yes
Used interface : Installed external ASPI interface

Used output format : Internal WAV Routines
Sample format : 44.100 Hz; 16 Bit; Stereo

TOC of the extracted CD

Track | Start | Length | Start sector | End sector
---------------------------------------------------------
1 | 0:00.00 | 3:45.25 | 0 | 16899
2 | 3:45.25 | 2:46.39 | 16900 | 29388
3 | 6:31.64 | 0:40.25 | 29389 | 32413
4 | 7:12.14 | 3:26.07 | 32414 | 47870
5 | 10:38.21 | 2:42.17 | 47871 | 60037
6 | 13:20.38 | 2:48.22 | 60038 | 72659
7 | 16:08.60 | 1:22.36 | 72660 | 78845
8 | 17:31.21 | 1:58.58 | 78846 | 87753
9 | 19:30.04 | 8:04.06 | 87754 | 124059
10 | 27:34.10 | 1:27.04 | 124060 | 130588
11 | 29:01.14 | 3:41.43 | 130589 | 147206
12 | 32:42.57 | 1:01.57 | 147207 | 151838
13 | 33:44.39 | 2:05.15 | 151839 | 161228
14 | 35:49.54 | 2:03.44 | 161229 | 170497
15 | 37:53.23 | 2:25.70 | 170498 | 181442
16 | 40:19.18 | 3:57.63 | 181443 | 199280
17 | 44:17.06 | 1:41.55 | 199281 | 206910
18 | 45:58.61 | 1:08.58 | 206911 | 212068
19 | 47:07.44 | 3:21.42 | 212069 | 227185
20 | 50:29.11 | 2:32.16 | 227186 | 238601
21 | 53:01.27 | 0:52.09 | 238602 | 242510

Range status and errors

Selected range

Filename C:\Documents and Settings\HansK\Desktop\Ilan Eshkeri - Stardust (2007).wav

Peak level 98.8 %
Range quality 100.0 %
Copy CRC 81CB570B
Copy OK

No errors occurred

AccurateRip summary

Track 1 accurately ripped (confidence 1) [7E8B2D1D]
Track 2 accurately ripped (confidence 1) [BF838BD8]
Track 3 accurately ripped (confidence 1) [E99F4FF8]
Track 4 accurately ripped (confidence 1) [EF37AE95]
Track 5 accurately ripped (confidence 1) [099246D4]
Track 6 accurately ripped (confidence 1) [B129947E]
Track 7 accurately ripped (confidence 1) [6CA27685]
Track 8 accurately ripped (confidence 1) [31D1D52B]
Track 9 accurately ripped (confidence 1) [E3985794]
Track 10 accurately ripped (confidence 1) [4B95318F]
Track 11 accurately ripped (confidence 1) [8CCE9956]
Track 12 accurately ripped (confidence 1) [C582E152]
Track 13 accurately ripped (confidence 1) [58D41F72]
Track 14 accurately ripped (confidence 1) [295CB601]
Track 15 accurately ripped (confidence 1) [46E53C2D]
Track 16 accurately ripped (confidence 1) [9847C8BB]
Track 17 accurately ripped (confidence 1) [69485674]
Track 18 accurately ripped (confidence 1) [2FBAC995]
Track 19 accurately ripped (confidence 1) [C128C4AE]
Track 20 accurately ripped (confidence 1) [4C856485]
Track 21 accurately ripped (confidence 1) [B5C62B45]

All tracks accurately ripped

End of status report


Трекер:  [ 08-Июл-2011 12:07 ]

  

Скачать .torrent

Размер .torrent файла 12 KB


Размер: 292 MB
Хэш (hash) релиза: a10e02f83912d4c2b67709d6839370aa909a3658

Еще никто не оставлял запись к записи скачать торрент Ilan Eshkeri - Stardust - 2007, APE . Будь первым!

!Обратная связь