Скачать через торрент музыку Tangerine Dream - Sorcerer Колдун - 2002 бесплатно без регистрации torrent

Если у вас наблюдаются проблемы со скриншотами, переходом по ссылками, скачиванием торрентов - проблемы в блокировщике рекламы AdBlock. #хорошегоДня!


Статистика раздачи
Размер:  249 MB   |    Зарегистрирован:  6 лет 2 месяца   |    .torrent скачан:  37 раз   |   
Раздают:  1  
   
Загрузка...
 
Автор Сообщение

Galfimbul

avatar Galfimbul


Tangerine Dream - SORCERER
Страна: UK
Жанр: Score / Abstract / Ambient
Год выпуска:1977
Год переиздания: 2002
Формат: APE (image + .cue)
Битрейт аудио: lossless
Продолжительность: 00:44:22
Трэклист:

1 Main Title (5:28)
2 Search (2:54)
3 The Call (1:57)
4 Creation (5:00)
5 Vengeance (5:32)
6 The Journey (2:00)
7 Grind (3:01)
8 Rain Forest (2:30)
9 Abyss (7:04)
10 The Mountain Road (1:53)
11 Impressions Of Sorcerer (2:55)
12 Betrayal (Sorcerer Theme) (3:38)


Доп. информация:

В 1977 году свет увидел первый саундтрек Tangerine Dream - "Sorcerer", который записывался в течение более чем двух лет... Идея этого проекта возникла у режиссера Уильяма Фридкина после того, как он услышал выступление группы в Мюнхене. Встретившись с музыкантами в Париже, он передал им сценарий будущего фильма, и на этом они разошлись. И уже гораздо позже, когда шел шестой месяц съемок в лесах Доминиканской Республики, пришла пленка от Tangerine Dream с 90-минутной записью. И на основе этой самой записи в дальнейшем монтировался фильм, хотя сами музыканты не видели ни единого кадра... Музыка "Sorcerer", пожалуй, наиболее мрачная и таинственная из всего, что сделано группой. По словам режиссера, музыка оказалась настолько тесно спаянной с фильмом, что одно не могло существовать без другого. Оставшись верной европейскому авангардному роковому прочтению, группа исполнила музыку, сложенную из отдельных звуковых мотивов, часто не связанных между собой и резко обрывающихся. В дальнейшем они часто сочиняли музыку для фильмов, преуспев в этом больше любого другого ансамбля (на их счету к 1986 году было более дюжины саундтреков).
От себя добавлю, что переслушав после долгого забвения сей диск, нашел его не таким уж и мрачным как воспринимал его ранее.., в общем и целом это в духе раннего творчества TD.
Label: MCA Records Ltd., MCA Records
Catalog#: MCD 10842, MCAD-10842
Format: CD, Album, Reissue
Country: UK
Released: 2002
Genre: Electronic
Style: Abstract, Ambient
Credits: Electric Piano [Fender Rhodes], Keyboards [Mellotron], Synthesizer [Arp Soloist, Projekt Electronic Modular And Sequencer] - Peter Baumann
Guitar [Fender Stratocaster, Gibson Les Paul], Keyboards [Twin Mellotron Mark V], Piano [Grand], Synthesizer [Arp Omni String, Modified Moog, Oberheim Polyphonic, Ppg] - Edgar Froese
Keyboards [Mellotron], Synthesizer [Arp Soloist, Computerstudio Digital And Oberheim Sequencer, Moog Modular, Projekt Electronic Sequencer] - Christoph Franke*
Written-By - C. Franke* , E. Froese* , P. Baumann*
Notes: (P)(C) 1977 MCA Records Inc., Universal City, CA., Marketed and distributed in the UK by Spectrum Music, A Universal Music Company. BIEM / MCPS.
 
Exact Audio Copy V0.99 prebeta 3 from 28. July 2007

EAC extraction logfile from 20. February 2008, 17:56

Tangerine Dream / Sorcerer

Used drive : PIONEER DVD-RW DVR-111 Adapter: 4 ID: 0

Read mode : SecureUtilize accurate stream : YesDefeat audio cache : YesMake use of C2 pointers : No

Read offset correction : 48Overread into Lead-In and Lead-Out : NoFill up missing offset samples with silence : YesDelete leading and trailing silent blocks : NoNull samples used in CRC calculations : YesUsed interface : Installed external ASPI interface

Used output format : User Defined EncoderSelected bitrate : 32 kBit/sQuality : HighAdd ID3 tag : NoCommand line compressor : C:\Program Files\Exact Audio Copy1\wapet.exeAdditional command line options : %d -t "Artist=%a" -t "Title=%t" -t "Album=%g" -t "Year=%y" -t "Track=%n" -t "Genre=%m" mac.exe %s %d -c3000 -v

TOC of the extracted CD

Track | Start | Length | Start sector | End sector --------------------------------------------------------- 1 | 0:00.32 | 5:31.55 | 32 | 24911 2 | 5:32.12 | 2:55.55 | 24912 | 38091 3 | 8:27.67 | 2:00.63 | 38092 | 47154 4 | 10:28.55 | 5:02.05 | 47155 | 69809 5 | 15:30.60 | 5:36.25 | 69810 | 95034 6 | 21:07.10 | 2:00.07 | 95035 | 104041 7 | 23:07.17 | 2:51.38 | 104042 | 116904 8 | 25:58.55 | 2:36.65 | 116905 | 128669 9 | 28:35.45 | 7:11.70 | 128670 | 161064 10 | 35:47.40 | 1:56.50 | 161065 | 169814 11 | 37:44.15 | 2:56.20 | 169815 | 183034 12 | 40:40.35 | 3:41.72 | 183035 | 199681

Range status and errors

Selected range

Filename F:\Muz\Tangerine Dream - Sorcerer.wav

Peak level 99.9 % Range quality 100.0 % Test CRC DB68DDEF Copy CRC DB68DDEF Copy OK

No errors occurred

AccurateRip summary

Track 1 accurately ripped (confidence 2) [DC60A086]Track 2 accurately ripped (confidence 2) [78D37689]Track 3 accurately ripped (confidence 2) [3BC4ACAC]Track 4 accurately ripped (confidence 2) [3A439CED]Track 5 accurately ripped (confidence 2) [736641A0]Track 6 accurately ripped (confidence 2) [4332EA1A]Track 7 accurately ripped (confidence 2) [059C8B2D]Track 8 accurately ripped (confidence 2) [5815FFF2]Track 9 accurately ripped (confidence 2) [743B38B9]Track 10 accurately ripped (confidence 2) [74D90F98]Track 11 accurately ripped (confidence 2) [54D7A231]Track 12 accurately ripped (confidence 2) [1D70006D]

All tracks accurately ripped

End of status report


Трекер:  [ 08-Июл-2011 12:07 ]

  

Скачать .torrent

Размер .torrent файла 20 KB


Размер: 249 MB
Хэш (hash) релиза: eea54997f4aee5856b69fe91507b13fe4c7d25e1

Еще никто не оставлял запись к записи скачать торрент Tangerine Dream - Sorcerer Колдун - 2002 . Будь первым!

!Обратная связь