Скачать через торрент музыку Куда приводят мечты What Dreams May Come бесплатно без регистрации torrent

Если у вас наблюдаются проблемы со скриншотами, переходом по ссылками, скачиванием торрентов - проблемы в блокировщике рекламы AdBlock. #хорошегоДня!


Статистика раздачи
Размер:  265 MB   |    Зарегистрирован:  6 лет 2 месяца   |    .torrent скачан:  1790 раз   |   
Раздают:  1  
   
Загрузка...
 
Автор Сообщение

Galfimbul

avatar Galfimbul


Куда приводят мечты / What Dreams May Come

Жанр: Score
Композитор: Michael Kamen
Год выпуска диска: 1998
Производитель диска: USA
Аудио кодек: FLAC
Тип рипа: tracks+.cue
Битрейт аудио: lossless
Продолжительность: 01:00:41

01 - When I Was Young I Once Met This Beautiful Girl By A Lake - That Was The Last Time We Saw The Children (05:33)
02 - Children's Melody - Tunnel-Christy's Death-The Journey Begins - I Still Exist - Annie Loses Faith (05:28)
03 - Summerland (The Painted World) - The Painted Bird Flies - Christy Flies (05:49)
04 - Marie's World (Leona Is Marie) (02:09)
05 - Longing (Lost Children) (03:53)
06 - Annie Gives Up - Soul Mates (04:39)
07 - In Hell - Sea of Faces - Recognition (Albert Is Ian) (05:52)
08 - Sea Of Faces-Falling Through Hell - Annie's Room (06:14)
09 - In the Grass With Annie - Decision-Divorce (03:53)
10 - Together In Hell - Death And Transfiguration - Together In Heaven (08:31)
11 - Reunited-Reincarnation-When I Was Young (04:01)
12 - Beside You (04:39)

Источник: lztr.us
 
Exact Audio Copy V0.99 prebeta 5 from 4. May 2009

EAC extraction logfile from 9. June 2009, 16:13

Michael Kamen / What Dreams May Come

Used drive : SONY CD-RW CRX320EE Adapter: 0 ID: 1

Read mode : SecureUtilize accurate stream : YesDefeat audio cache : YesMake use of C2 pointers : No

Read offset correction : 6Overread into Lead-In and Lead-Out : NoFill up missing offset samples with silence : YesDelete leading and trailing silent blocks : NoNull samples used in CRC calculations : YesUsed interface : Native Win32 interface for Win NT & 2000Gap handling : Appended to previous track

Used output format : User Defined EncoderSelected bitrate : 768 kBit/sQuality : HighAdd ID3 tag : NoCommand line compressor : C:\Program Files\Exact Audio Copy\FLAC\FLAC.EXEAdditional command line options : -V -8 -T "artist=%a" -T "title=%t" -T "album=%g" -T "date=%y" -T "tracknumber=%n" -T "genre=%m" %s

TOC of the extracted CD

Track | Start | Length | Start sector | End sector --------------------------------------------------------- 1 | 0:00.00 | 5:32.50 | 0 | 24949 2 | 5:32.50 | 5:28.30 | 24950 | 49579 3 | 11:01.05 | 5:48.65 | 49580 | 75744 4 | 16:49.70 | 2:09.35 | 75745 | 85454 5 | 18:59.30 | 3:52.65 | 85455 | 102919 6 | 22:52.20 | 4:39.22 | 102920 | 123866 7 | 27:31.42 | 5:52.30 | 123867 | 150296 8 | 33:23.72 | 6:13.55 | 150297 | 178326 9 | 39:37.52 | 3:53.13 | 178327 | 195814 10 | 43:30.65 | 8:30.52 | 195815 | 234116 11 | 52:01.42 | 4:00.70 | 234117 | 252186 12 | 56:02.37 | 4:38.58 | 252187 | 273094

Track 1

Filename C:\music\Michael Kamen - 1998 - What Dreams May Come\01 - When I Was Young I Once Met This Beautiful Girl By A Lake - That Was The Last Time We Saw The Children.wav

Pre-gap length 0:00:02.00

Peak level 68.7 % Track quality 100.0 % Test CRC 8F955685 Copy CRC 8F955685 Accurately ripped (confidence 4) [B1930AE7] Copy OK

Track 2

Filename C:\music\Michael Kamen - 1998 - What Dreams May Come\02 - Children's Melody - Tunnel-Christy's Death-The Journey Begins - I Still Exist - Annie Loses Faith.wav

Pre-gap length 0:00:07.86

Peak level 91.0 % Track quality 99.9 % Test CRC 287D0301 Copy CRC 287D0301 Accurately ripped (confidence 4) [514FF50E] Copy OK

Track 3

Filename C:\music\Michael Kamen - 1998 - What Dreams May Come\03 - Summerland (The Painted World) - The Painted Bird Flies - Christy Flies.wav

Pre-gap length 0:00:03.10

Peak level 91.1 % Track quality 100.0 % Test CRC E1D97B36 Copy CRC E1D97B36 Accurately ripped (confidence 4) [9933D43A] Copy OK

Track 4

Filename C:\music\Michael Kamen - 1998 - What Dreams May Come\04 - Marie's World (Leona Is Marie).wav

Pre-gap length 0:00:08.90

Peak level 90.2 % Track quality 100.0 % Test CRC F0FB0D50 Copy CRC F0FB0D50 Accurately ripped (confidence 4) [2450289C] Copy OK

Track 5

Filename C:\music\Michael Kamen - 1998 - What Dreams May Come\05 - Longing (Lost Children).wav

Pre-gap length 0:00:02.37

Peak level 90.1 % Track quality 100.0 % Test CRC 4B4B0896 Copy CRC 4B4B0896 Accurately ripped (confidence 4) [BC8E9235] Copy OK

Track 6

Filename C:\music\Michael Kamen - 1998 - What Dreams May Come\06 - Annie Gives Up - Soul Mates.wav

Pre-gap length 0:00:03.50

Peak level 90.4 % Track quality 99.9 % Test CRC 2F9C9338 Copy CRC 2F9C9338 Accurately ripped (confidence 4) [86A41BFB] Copy OK

Track 7

Filename C:\music\Michael Kamen - 1998 - What Dreams May Come\07 - In Hell - Sea of Faces - Recognition (Albert Is Ian).wav

Pre-gap length 0:00:03.53

Peak level 90.8 % Track quality 100.0 % Test CRC 7EA030CC Copy CRC 7EA030CC Accurately ripped (confidence 4) [EA4363AF] Copy OK

Track 8

Filename C:\music\Michael Kamen - 1998 - What Dreams May Come\08 - Sea Of Faces-Falling Through Hell - Annie's Room.wav

Pre-gap length 0:00:02.96

Peak level 90.4 % Track quality 100.0 % Test CRC CF2DDBDC Copy CRC CF2DDBDC Accurately ripped (confidence 4) [0E854183] Copy OK

Track 9

Filename C:\music\Michael Kamen - 1998 - What Dreams May Come\09 - In the Grass With Annie - Decision-Divorce.wav

Pre-gap length 0:00:04.26

Peak level 22.6 % Track quality 100.0 % Test CRC 26912552 Copy CRC 26912552 Accurately ripped (confidence 4) [36EBBBC9] Copy OK

Track 10

Filename C:\music\Michael Kamen - 1998 - What Dreams May Come\10 - Together In Hell - Death And Transfiguration - Together In Heaven.wav

Pre-gap length 0:00:04.06

Peak level 91.0 % Track quality 99.9 % Test CRC 58513A1B Copy CRC 58513A1B Accurately ripped (confidence 4) [08808081] Copy OK

Track 11

Filename C:\music\Michael Kamen - 1998 - What Dreams May Come\11 - Reunited-Reincarnation-When I Was Young.wav

Pre-gap length 0:00:01.49

Peak level 81.5 % Track quality 100.0 % Test CRC 9783F2BF Copy CRC 9783F2BF Accurately ripped (confidence 4) [CA745540] Copy OK

Track 12

Filename C:\music\Michael Kamen - 1998 - What Dreams May Come\12 - Beside You.wav

Pre-gap length 0:00:05.42

Peak level 90.2 % Track quality 100.0 % Test CRC 4A32681D Copy CRC 4A32681D Accurately ripped (confidence 4) [489B109B] Copy OK

All tracks accurately ripped

No errors occurred

End of status report
 
REM GENRE UnknownREM DATE 1998REM DISCID 830E390CREM COMMENT "ExactAudioCopy v0.99pb5"PERFORMER "Michael Kamen"TITLE "What Dreams May Come"FILE "01 - When I Was Young I Once Met This Beautiful Girl By A Lake - That Was The Last Time We Saw The Children.wav" WAVE TRACK 01 AUDIO TITLE "When I Was Young I Once Met This Beautiful Girl By A Lake - That Was The Last..." PERFORMER "Michael Kamen" INDEX 01 00:00:00 INDEX 02 02:01:15 TRACK 02 AUDIO TITLE "Children's Melody - Tunnel-Christy's Death-The Journey Begins - I Still Exist..." PERFORMER "Michael Kamen" INDEX 00 05:24:60FILE "02 - Children's Melody - Tunnel-Christy's Death-The Journey Begins - I Still Exist - Annie Loses Faith.wav" WAVE INDEX 01 00:00:00 INDEX 02 00:34:00 INDEX 03 03:39:37 INDEX 04 04:19:62 TRACK 03 AUDIO TITLE "Summerland (The Painted World) - The Painted Bird Flies - Christy Flies" PERFORMER "Michael Kamen" INDEX 00 05:25:22FILE "03 - Summerland (The Painted World) - The Painted Bird Flies - Christy Flies.wav" WAVE INDEX 01 00:00:00 INDEX 02 02:56:62 INDEX 03 04:28:32 TRACK 04 AUDIO TITLE "Marie's World (Leona Is Marie)" PERFORMER "Michael Kamen" INDEX 00 05:39:72FILE "04 - Marie's World (Leona Is Marie).wav" WAVE INDEX 01 00:00:00 TRACK 05 AUDIO TITLE "Longing (Lost Children)" PERFORMER "Michael Kamen" INDEX 00 02:07:07FILE "05 - Longing (Lost Children).wav" WAVE INDEX 01 00:00:00 TRACK 06 AUDIO TITLE "Annie Gives Up - Soul Mates" PERFORMER "Michael Kamen" INDEX 00 03:49:27FILE "06 - Annie Gives Up - Soul Mates.wav" WAVE INDEX 01 00:00:00 INDEX 02 01:24:50 TRACK 07 AUDIO TITLE "In Hell - Sea of Faces - Recognition (Albert Is Ian)" PERFORMER "Michael Kamen" INDEX 00 04:35:57FILE "07 - In Hell - Sea of Faces - Recognition (Albert Is Ian).wav" WAVE INDEX 01 00:00:00 INDEX 02 01:19:05 INDEX 03 04:14:45 TRACK 08 AUDIO TITLE "Sea Of Faces-Falling Through Hell - Annie's Room" PERFORMER "Michael Kamen" INDEX 00 05:49:33FILE "08 - Sea Of Faces-Falling Through Hell - Annie's Room.wav" WAVE INDEX 01 00:00:00 INDEX 02 04:12:68 TRACK 09 AUDIO TITLE "In the Grass With Annie - Decision-Divorce" PERFORMER "Michael Kamen" INDEX 00 06:09:35FILE "09 - In the Grass With Annie - Decision-Divorce.wav" WAVE INDEX 01 00:00:00 INDEX 02 01:08:60 TRACK 10 AUDIO TITLE "Together In Hell - Death And Transfiguration - Together In Heaven" PERFORMER "Michael Kamen" INDEX 00 03:49:08FILE "10 - Together In Hell - Death And Transfiguration - Together In Heaven.wav" WAVE INDEX 01 00:00:00 INDEX 02 03:03:30 INDEX 03 05:55:60 TRACK 11 AUDIO TITLE "Reunited-Reincarnation-When I Was Young" PERFORMER "Michael Kamen" INDEX 00 08:29:15FILE "11 - Reunited-Reincarnation-When I Was Young.wav" WAVE INDEX 01 00:00:00 TRACK 12 AUDIO TITLE "Beside You" PERFORMER "Michael Kamen" INDEX 00 03:55:38FILE "12 - Beside You.wav" WAVE INDEX 01 00:00:00



Трекер:  [ 08-Июл-2011 12:13 ]

  

Скачать .torrent

Размер .torrent файла 12 KB


Размер: 265 MB
Хэш (hash) релиза: 403da6a179fade251268067dcb7de51d8400fd21

Еще никто не оставлял запись к записи скачать торрент Куда приводят мечты What Dreams May Come . Будь первым!

!Обратная связь