Скачать через торрент музыку Heat Схватка бесплатно без регистрации torrent

Если у вас наблюдаются проблемы со скриншотами, переходом по ссылками, скачиванием торрентов - проблемы в блокировщике рекламы AdBlock. #хорошегоДня!


Статистика раздачи
Размер:  394 MB   |    Зарегистрирован:  6 лет 2 месяца   |    .torrent скачан:  39 раз   |   
Раздают:  1  
   
Загрузка...
 
Автор Сообщение

Galfimbul

avatar Galfimbul


Heat / Схватка

Жанр: Music From The Motion Picture
Год выпуска диска: 1995
Производитель диска: USA
Аудио кодек: APE
Тип рипа: image+.cue
Битрейт аудио: 715 kbs
Продолжительность: 1.15.08

Трэклист:

1. Kronos Quartet - Heat
2. Passengers - Always Forever Now
3. Elliot Goldenthal - Condensers
4. Kronos Quartet - Refinery Surveillance
5. Terje Rypdal & The Chasers - Last Nite
6. Micheal Brook - Ultramarine
7. Einsturzende Neubauten - Armenia
8. Elliot Goldenthal - Of Helplessness
9. Elliot Goldenthal - Steel Cello Lament
10. Terje Rypdal - Mystery Man
11. Moby - New Dawn Fades
12. Elliot Goldenthal - Entrada & Shootout
13. Brian Eno - Force Marker
14. Elliot Goldenthal - Coffee Shop
15. Elliot Goldenthal - Fate Scrapes
16. Lisa Gerrard - La Bas (Edited Version)
17. Lisa Gerrard - Gloradin
18. Elliot Goldenthal - Run UpHill
19. Kronos Quartet - Predator Diorama
20. Elliot Goldenthal - Of Separation
21. Moby - God Moving Over The Face Of The Waters
Exact Audio Copy V0.99 prebeta 4 from 23. January 2008

EAC extraction logfile from 26. July 2008, 10:03

Various / Heat

Used drive : Optiarc DVD RW AD-5170A Adapter: 3 ID: 0

Read mode : Secure
Utilize accurate stream : Yes
Defeat audio cache : Yes
Make use of C2 pointers : No

Read offset correction : 48
Overread into Lead-In and Lead-Out : No
Fill up missing offset samples with silence : Yes
Delete leading and trailing silent blocks : No
Null samples used in CRC calculations : Yes
Used interface : Installed external ASPI interface

Used output format : Internal WAV Routines
Sample format : 44.100 Hz; 16 Bit; Stereo

TOC of the extracted CD

Track | Start | Length | Start sector | End sector
---------------------------------------------------------
1 | 0:00.00 | 7:43.00 | 0 | 34724
2 | 7:43.00 | 6:56.68 | 34725 | 65992
3 | 14:39.68 | 2:36.65 | 65993 | 77757
4 | 17:16.58 | 1:47.42 | 77758 | 85824
5 | 19:04.25 | 3:31.45 | 85825 | 101694
6 | 22:35.70 | 4:37.05 | 101695 | 122474
7 | 27:13.00 | 5:00.08 | 122475 | 144982
8 | 32:13.08 | 2:41.20 | 144983 | 157077
9 | 34:54.28 | 1:44.72 | 157078 | 164949
10 | 36:39.25 | 4:41.45 | 164950 | 186069
11 | 41:20.70 | 2:56.50 | 186070 | 199319
12 | 44:17.45 | 1:47.23 | 199320 | 207367
13 | 46:04.68 | 3:39.15 | 207368 | 223807
14 | 49:44.08 | 1:39.22 | 223808 | 231254
15 | 51:23.30 | 1:36.58 | 231255 | 238512
16 | 53:00.13 | 3:12.35 | 238513 | 252947
17 | 56:12.48 | 3:58.62 | 252948 | 270859
18 | 60:11.35 | 2:53.23 | 270860 | 283857
19 | 63:04.58 | 2:41.70 | 283858 | 296002
20 | 65:46.53 | 2:23.07 | 296003 | 306734
21 | 68:09.60 | 6:58.29 | 306735 | 338113

Range status and errors

Selected range

Filename F:\Heat - SoundTrack.wav

Peak level 100.0 %
Range quality 100.0 %
Copy CRC 8DB97C94
Copy OK

No errors occurred

End of status report


Трекер:  [ 08-Июл-2011 12:13 ]

  

Скачать .torrent

Размер .torrent файла 16 KB


Размер: 394 MB
Хэш (hash) релиза: 42810508ce5ba048cea8bfcfb9d889876314aa04

Торренты, похожие на Heat Схватка скачать торрент

Форум Название Автор Размер S L Добавлен
Саундтреки к фильмам и мультфильмам (mp3) ·· (Soundtrack) Heat / Схватка (треки, не вошедшие в OST) - 1997, MP3, 320 kbps Galfimbul 168064930160 MB 0 0 1292266051

21:47

13-Дек-10

Саундтреки к фильмам и мультфильмам (mp3) ·· (Score) Схватка / Heat (expanded) (by Elliot Goldenthal) - 1995, MP3, 320 kbps Phoenix 126263220120 MB 0 0 1292268204

22:23

13-Дек-10

Саундтреки к фильмам и мультфильмам (mp3) ·· (OST) Схватка / Heat - 1995, MP3, 320 кбит/с Galfimbul 179840070172 MB 0 0 1292265776

21:42

13-Дек-10

Еще никто не оставлял запись к записи скачать торрент Heat Схватка . Будь первым!

!Обратная связь