Скачать через торрент музыку Yeong-wook Jo - Sympathy for Lady Vengeance Сочувствие госпоже Месть OST - 2005, WAVPack бесплатно без регистрации torrent

Если у вас наблюдаются проблемы со скриншотами, переходом по ссылками, скачиванием торрентов - проблемы в блокировщике рекламы AdBlock. #хорошегоДня!


Статистика раздачи
Размер:  237 MB   |    Зарегистрирован:  6 лет 5 месяцев   |    .torrent скачан:  46 раз   |   
Раздают:  1  
   
Загрузка...
 
Автор Сообщение

Galfimbul

avatar Galfimbul


Yeong-wook Jo - Sympathy for Lady Vengeance OST

Жанр: Soundtrack
Год выпуска диска: 2005
Производитель диска: Pastel Music (Korea)
Аудио кодек: WAVPack
Тип рипа: image+.cue
Битрейт аудио: lossless
Продолжительность: 45:08

Трэклист:
01. Sympathy for Lady Vengeance
02. Guemja's Prayer
03. None of Your Business
04. A Witch
05. A Prayer
06. Fatality
07. Sunny Afternoon
08. You've Changed
09. Marble
10. The Angel
11. Farewell
12. Lullaby
13. Letter
14. Crime and Punishment
15. Pull the Trigger
16. Wicked Cake
17. Unhappy Party
18. Mareta, Mareta No'm Faces Plorar
19. Sympathy for Lady Vengeance (Another Take)
20. Lullaby (Another Take)

Доп. информация

Эксклюзивно для торрентс.ру Саундтрек к фильму "Сочувствие госпоже Месть" (Sympathy for Lady Vengeance) в lossless-качестве. Любителям классической музыки наверняка понравится.

Источник - HQShare.net
 
EAC extraction logfile from 28. July 2007, 20:17 for CDYeong Wook Jo / Sympathy for Lady Vengeance

Used drive : SONY DVD RW DRU-830A Adapter: 0 ID: 1Read mode : Secure with NO C2, accurate stream, disable cacheRead offset correction : 6Overread into Lead-In and Lead-Out : No

Used output format : Internal WAV Routines 44.100 Hz; 16 Bit; Stereo

Other options : Fill up missing offset samples with silence : Yes Delete leading and trailing silent blocks : No Installed external ASPI interface

Range status and errorsSelected range Filename D:\[HQShare.Net]\Sympathy for Lady Vengeance.wav

Peak level 100.0 % Range quality 100.0 % CRC 335210CD Copy OK

No errors occured

End of status report
 
[Disc ID: 001eadd6-01bb97b1-e20a9414]Track [ CRC ] Status 01 [665a200d] (04/04) Accurately ripped as in pressing(s) #1 02 [e1a6ee28] (04/04) Accurately ripped as in pressing(s) #1 03 [8f1b970c] (04/04) Accurately ripped as in pressing(s) #1 04 [1093f596] (04/04) Accurately ripped as in pressing(s) #1 05 [e92e36e4] (04/04) Accurately ripped as in pressing(s) #1 06 [d632d997] (04/04) Accurately ripped as in pressing(s) #1 07 [5ca211be] (04/04) Accurately ripped as in pressing(s) #1 08 [6b48cce0] (04/04) Accurately ripped as in pressing(s) #1 09 [ad58b5dd] (04/04) Accurately ripped as in pressing(s) #1 10 [47cb5b11] (04/04) Accurately ripped as in pressing(s) #1 11 [fdc4e297] (04/04) Accurately ripped as in pressing(s) #1 12 [bec371f9] (04/04) Accurately ripped as in pressing(s) #1 13 [c6e8ef55] (04/04) Accurately ripped as in pressing(s) #1 14 [418eb336] (04/04) Accurately ripped as in pressing(s) #1 15 [07692a7a] (04/04) Accurately ripped as in pressing(s) #1 16 [8ae53d1e] (04/04) Accurately ripped as in pressing(s) #1 17 [4f21eb6d] (04/04) Accurately ripped as in pressing(s) #1 18 [b8991d75] (04/04) Accurately ripped as in pressing(s) #1 19 [d435af0f] (04/04) Accurately ripped as in pressing(s) #1 20 [e1c79aa6] (04/04) Accurately ripped as in pressing(s) #1
 
Started at: Thursday, 22. 01. 2009. - 20:16.181 file found

1 -===- C:\Users\Kirill\Desktop\CD\Sympathy for Lady Vengeance.wav Conclusion: this track is CDDA with probability 100%

Finished at: Thursday, 22. 01. 2009. - 21:26.59 (operation time: 1:10.40)


Трекер:  [ 08-Июл-2011 12:15 ]

  

Скачать .torrent

Размер .torrent файла 19 KB


Размер: 237 MB
Хэш (hash) релиза: 6e7bf49a79dbe2ccc41820cd35b2263bb648217d

Еще никто не оставлял запись к записи скачать торрент Yeong-wook Jo - Sympathy for Lady Vengeance Сочувствие госпоже Месть OST - 2005, WAVPack . Будь первым!

!Обратная связь