Скачать через торрент музыку The Ugly Truth | Голая правда бесплатно без регистрации torrent

Если у вас наблюдаются проблемы со скриншотами, переходом по ссылками, скачиванием торрентов - проблемы в блокировщике рекламы AdBlock. #хорошегоДня!


Статистика раздачи
Размер:  200 MB   |    Зарегистрирован:  6 лет 2 месяца   |    .torrent скачан:  46 раз   |   
Раздают:  1  
   
Загрузка...
 
Автор Сообщение

Galfimbul

avatar Galfimbul


The Ugly Truth | Голая правда
Жанр: Score
Год выпуска диска: 2009
Производитель диска: USA
Аудио кодек: FLAC
Тип рипа: tracks+.cue
Битрейт аудио: lossless
Продолжительность: 38:23
01. Flick the Bean
02. Abby Calls Colin
03. Abby & Mike in L.A.
04. Post Kiss
05. Bad Date
06. It's a Lie
07. Cat Person
08. Get the Stain Out
09. The Dinner
10. Jello Twins
11. Tease
12. Abby Calls Mike
13. The Ugly Truth
14. Duck Cacciatore
15. Thank Your Pussy For Me
16. Champagne
17. Earpiece
18. Spazzy Dance
19. Your Producer
20. Closet
21. Black Dress
22. Frowny McFlaccid
23. Right This Way
24. Who Would Love
25. New Theme
26. Goodnight Then
27. Somethin's Up
28. Cat Escapes
29. Naked Weather Girl
30. Tahoe
31. Ratings
32. Your Replacement
33. The Kiss
34. Abby & Mike Banter
35. Abby & Mike Rant

Exact Audio Copy V0.99 prebeta 5 from 4. May 2009

EAC extraction logfile from 26. November 2009, 14:02

Aaron Zigman / The Ugly Truth

Used drive : Optiarc DVD RW AD-7170A Adapter: 0 ID: 0

Read mode : Secure
Utilize accurate stream : Yes
Defeat audio cache : Yes
Make use of C2 pointers : No

Read offset correction : 48
Overread into Lead-In and Lead-Out : No
Fill up missing offset samples with silence : Yes
Delete leading and trailing silent blocks : No
Null samples used in CRC calculations : Yes
Used interface : Native Win32 interface for Win NT & 2000
Gap handling : Appended to previous track

Used output format : User Defined Encoder
Selected bitrate : 320 kBit/s
Quality : High
Add ID3 tag : No
Command line compressor : C:\Program Files\Exact Audio Copy\Flac\flac.exe
Additional command line options : -8 -V -T "ARTIST=%a" -T "TITLE=%t" -T "ALBUM=%g" -T "DATE=%y" -T "TRACKNUMBER=%n" -T "GENRE=%m" -T "COMMENT=EAC FLAC -8" %s

TOC of the extracted CD

Track | Start | Length | Start sector | End sector
---------------------------------------------------------
1 | 0:00.00 | 1:08.57 | 0 | 5156
2 | 1:08.57 | 2:02.59 | 5157 | 14365
3 | 3:11.41 | 1:17.45 | 14366 | 20185
4 | 4:29.11 | 2:08.63 | 20186 | 29848
5 | 6:37.74 | 0:42.22 | 29849 | 33020
6 | 7:20.21 | 1:52.41 | 33021 | 41461
7 | 9:12.62 | 1:05.09 | 41462 | 46345
8 | 10:17.71 | 0:32.11 | 46346 | 48756
9 | 10:50.07 | 2:33.72 | 48757 | 60303
10 | 13:24.04 | 1:11.34 | 60304 | 65662
11 | 14:35.38 | 0:54.61 | 65663 | 69773
12 | 15:30.24 | 1:52.57 | 69774 | 78230
13 | 17:23.06 | 2:10.29 | 78231 | 88009
14 | 19:33.35 | 1:15.45 | 88010 | 93679
15 | 20:49.05 | 0:36.20 | 93680 | 96399
16 | 21:25.25 | 1:03.27 | 96400 | 101151
17 | 22:28.52 | 0:46.18 | 101152 | 104619
18 | 23:14.70 | 0:14.08 | 104620 | 105677
19 | 23:29.03 | 0:39.22 | 105678 | 108624
20 | 24:08.25 | 0:46.34 | 108625 | 112108
21 | 24:54.59 | 0:45.47 | 112109 | 115530
22 | 25:40.31 | 0:28.06 | 115531 | 117636
23 | 26:08.37 | 0:31.51 | 117637 | 120012
24 | 26:40.13 | 1:11.15 | 120013 | 125352
25 | 27:51.28 | 0:31.17 | 125353 | 127694
26 | 28:22.45 | 1:20.48 | 127695 | 133742
27 | 29:43.18 | 0:22.59 | 133743 | 135451
28 | 30:06.02 | 1:51.15 | 135452 | 143791
29 | 31:57.17 | 0:37.61 | 143792 | 146627
30 | 32:35.03 | 0:37.44 | 146628 | 149446
31 | 33:12.47 | 0:27.54 | 149447 | 151525
32 | 33:40.26 | 0:33.45 | 151526 | 154045
33 | 34:13.71 | 1:28.28 | 154046 | 160673
34 | 35:42.24 | 0:35.09 | 160674 | 163307
35 | 36:17.33 | 2:06.03 | 163308 | 172760

Track 1

Filename E:\DownLoad\Score_The Ugly Truth\ 01. Aaron Zigman – Flick the Bean.wav

Pre-gap length 0:00:02.00

Peak level 100.0 %
Track quality 99.7 %
Test CRC 961D0A13
Copy CRC 961D0A13
Copy OK

Track 2

Filename E:\DownLoad\Score_The Ugly Truth\ 02. Aaron Zigman – Abby Calls Colin.wav

Peak level 85.8 %
Track quality 100.0 %
Test CRC 057745C5
Copy CRC 057745C5
Copy OK

Track 3

Filename E:\DownLoad\Score_The Ugly Truth\ 03. Aaron Zigman – Abby & Mike in L.A..wav

Peak level 100.0 %
Track quality 100.0 %
Test CRC 23407878
Copy CRC 23407878
Copy OK

Track 4

Filename E:\DownLoad\Score_The Ugly Truth\ 04. Aaron Zigman – Post Kiss.wav

Peak level 100.0 %
Track quality 99.9 %
Test CRC C0F6E913
Copy CRC C0F6E913
Copy OK

Track 5

Filename E:\DownLoad\Score_The Ugly Truth\ 05. Aaron Zigman – Bad Date.wav

Peak level 39.8 %
Track quality 100.0 %
Test CRC 5D1CB3A8
Copy CRC 5D1CB3A8
Copy OK

Track 6

Filename E:\DownLoad\Score_The Ugly Truth\ 06. Aaron Zigman – It's a Lie.wav

Peak level 66.7 %
Track quality 99.9 %
Test CRC E4CDCFBD
Copy CRC E4CDCFBD
Copy OK

Track 7

Filename E:\DownLoad\Score_The Ugly Truth\ 07. Aaron Zigman – Cat Person.wav

Peak level 63.8 %
Track quality 100.0 %
Test CRC CD1AFF94
Copy CRC CD1AFF94
Copy OK

Track 8

Filename E:\DownLoad\Score_The Ugly Truth\ 08. Aaron Zigman – Get the Stain Out.wav

Peak level 100.0 %
Track quality 100.0 %
Test CRC 9720C9D3
Copy CRC 9720C9D3
Copy OK

Track 9

Filename E:\DownLoad\Score_The Ugly Truth\ 09. Aaron Zigman – The Dinner.wav

Peak level 94.8 %
Track quality 100.0 %
Test CRC A0527BAB
Copy CRC A0527BAB
Copy OK

Track 10

Filename E:\DownLoad\Score_The Ugly Truth\ 10. Aaron Zigman – Jello Twins.wav

Peak level 100.0 %
Track quality 100.0 %
Test CRC 304C9918
Copy CRC 304C9918
Copy OK

Track 11

Filename E:\DownLoad\Score_The Ugly Truth\ 11. Aaron Zigman – Tease.wav

Peak level 56.9 %
Track quality 99.8 %
Test CRC 65456EE5
Copy CRC 65456EE5
Copy OK

Track 12

Filename E:\DownLoad\Score_The Ugly Truth\ 12. Aaron Zigman – Abby Calls Mike.wav

Peak level 80.9 %
Track quality 99.8 %
Test CRC D6427A8E
Copy CRC D6427A8E
Copy OK

Track 13

Filename E:\DownLoad\Score_The Ugly Truth\ 13. Aaron Zigman – The Ugly Truth.wav

Peak level 28.7 %
Track quality 100.0 %
Test CRC 352B9BD8
Copy CRC 352B9BD8
Copy OK

Track 14

Filename E:\DownLoad\Score_The Ugly Truth\ 14. Aaron Zigman – Duck Cacciatore.wav

Peak level 79.3 %
Track quality 100.0 %
Test CRC 49BC3958
Copy CRC 49BC3958
Copy OK

Track 15

Filename E:\DownLoad\Score_The Ugly Truth\ 15. Aaron Zigman – Thank Your Pussy For Me.wav

Peak level 92.1 %
Track quality 100.0 %
Test CRC 107BB439
Copy CRC 107BB439
Copy OK

Track 16

Filename E:\DownLoad\Score_The Ugly Truth\ 16. Aaron Zigman – Champagne.wav

Peak level 89.8 %
Track quality 100.0 %
Test CRC A57148A6
Copy CRC A57148A6
Copy OK

Track 17

Filename E:\DownLoad\Score_The Ugly Truth\ 17. Aaron Zigman – Earpiece.wav

Peak level 66.8 %
Track quality 100.0 %
Test CRC 9BB6B042
Copy CRC 9BB6B042
Copy OK

Track 18

Filename E:\DownLoad\Score_The Ugly Truth\ 18. Aaron Zigman – Spazzy Dance.wav

Peak level 63.3 %
Track quality 100.0 %
Test CRC 7E8CFE9B
Copy CRC 7E8CFE9B
Copy OK

Track 19

Filename E:\DownLoad\Score_The Ugly Truth\ 19. Aaron Zigman – Your Producer.wav

Peak level 84.9 %
Track quality 100.0 %
Test CRC F649C7F0
Copy CRC F649C7F0
Copy OK

Track 20

Filename E:\DownLoad\Score_The Ugly Truth\ 20. Aaron Zigman – Closet.wav

Peak level 100.0 %
Track quality 100.0 %
Test CRC CFCEC9A0
Copy CRC CFCEC9A0
Copy OK

Track 21

Filename E:\DownLoad\Score_The Ugly Truth\ 21. Aaron Zigman – Black Dress.wav

Peak level 88.1 %
Track quality 100.0 %
Test CRC A17AD389
Copy CRC A17AD389
Copy OK

Track 22

Filename E:\DownLoad\Score_The Ugly Truth\ 22. Aaron Zigman – Frowny McFlaccid.wav

Peak level 88.3 %
Track quality 100.0 %
Test CRC 45E1066F
Copy CRC 45E1066F
Copy OK

Track 23

Filename E:\DownLoad\Score_The Ugly Truth\ 23. Aaron Zigman – Right This Way.wav

Peak level 53.8 %
Track quality 100.0 %
Test CRC BF09F4A9
Copy CRC BF09F4A9
Copy OK

Track 24

Filename E:\DownLoad\Score_The Ugly Truth\ 24. Aaron Zigman – Who Would Love.wav

Peak level 16.5 %
Track quality 100.0 %
Test CRC F46DD847
Copy CRC F46DD847
Copy OK

Track 25

Filename E:\DownLoad\Score_The Ugly Truth\ 25. Aaron Zigman – New Theme.wav

Peak level 99.1 %
Track quality 99.6 %
Test CRC 059E6AD8
Copy CRC 059E6AD8
Copy OK

Track 26

Filename E:\DownLoad\Score_The Ugly Truth\ 26. Aaron Zigman – Goodnight Then.wav

Peak level 49.2 %
Track quality 100.0 %
Test CRC EFAD2F65
Copy CRC EFAD2F65
Copy OK

Track 27

Filename E:\DownLoad\Score_The Ugly Truth\ 27. Aaron Zigman – Somethin's Up.wav

Peak level 94.4 %
Track quality 100.0 %
Test CRC 4496E65D
Copy CRC 4496E65D
Copy OK

Track 28

Filename E:\DownLoad\Score_The Ugly Truth\ 28. Aaron Zigman – Cat Escapes.wav

Peak level 100.0 %
Track quality 100.0 %
Test CRC 49670AF3
Copy CRC 49670AF3
Copy OK

Track 29

Filename E:\DownLoad\Score_The Ugly Truth\ 29. Aaron Zigman – Naked Weather Girl.wav

Peak level 75.8 %
Track quality 100.0 %
Test CRC B8477D52
Copy CRC B8477D52
Copy OK

Track 30

Filename E:\DownLoad\Score_The Ugly Truth\ 30. Aaron Zigman – Tahoe.wav

Peak level 24.0 %
Track quality 100.0 %
Test CRC E9D0D6D7
Copy CRC E9D0D6D7
Copy OK

Track 31

Filename E:\DownLoad\Score_The Ugly Truth\ 31. Aaron Zigman – Ratings.wav

Peak level 41.9 %
Track quality 100.0 %
Test CRC 66AB9316
Copy CRC 66AB9316
Copy OK

Track 32

Filename E:\DownLoad\Score_The Ugly Truth\ 32. Aaron Zigman – Your Replacement.wav

Peak level 86.0 %
Track quality 100.0 %
Test CRC 9CECB53A
Copy CRC 9CECB53A
Copy OK

Track 33

Filename E:\DownLoad\Score_The Ugly Truth\ 33. Aaron Zigman – The Kiss.wav

Peak level 100.0 %
Track quality 100.0 %
Test CRC 0769100D
Copy CRC 0769100D
Copy OK

Track 34

Filename E:\DownLoad\Score_The Ugly Truth\ 34. Aaron Zigman – Abby & Mike Banter.wav

Peak level 61.3 %
Track quality 100.0 %
Test CRC B6288A81
Copy CRC B6288A81
Copy OK

Track 35

Filename E:\DownLoad\Score_The Ugly Truth\ 35. Aaron Zigman – Abby & Mike Rant.wav

Peak level 100.0 %
Track quality 100.0 %
Test CRC A28F7F35
Copy CRC A28F7F35
Copy OK

No errors occurred

End of status report


Трекер:  [ 08-Июл-2011 12:16 ]

  

Скачать .torrent

Размер .torrent файла 19 KB


Размер: 200 MB
Хэш (hash) релиза: c53f4965b1696d3c72eae471f22bf3df36d70821

Еще никто не оставлял запись к записи скачать торрент The Ugly Truth | Голая правда . Будь первым!

!Обратная связь