Скачать через торрент музыку Adam Clayton & Larry Mullen - Theme From Mission: Impossible бесплатно без регистрации torrent

Если у вас наблюдаются проблемы со скриншотами, переходом по ссылками, скачиванием торрентов - проблемы в блокировщике рекламы AdBlock. #хорошегоДня!


Статистика раздачи
Размер:  128 MB   |    Зарегистрирован:  6 лет 2 месяца   |    .torrent скачан:  44 раза   |   
Раздают:  1  
   
Загрузка...
 
Автор Сообщение

Galfimbul

avatar Galfimbul


Adam Clayton & Larry Mullen - Theme From Mission: Impossible (CD Single)

Жанр: House, Theme, Techno, Drum n Bass, Experimental
Год выпуска диска: 1996
Производитель диска: UK / Mother Records (Catalog#: MUMCD75 5764712)
Аудио кодек: FLAC
Тип рипа: tracks+.cue
Битрейт аудио: lossless
Продолжительность: 19:47
Трэклист:
1. Theme From Mission: Impossible 3:27
Arranged By [Strings] - Craig Armstrong
Conductor [Sample] - Lalo Schifrin
Engineer - Dan Gellert , David Beal
Mixed By [Assistant] - Adam Brown
Percussion - Bashiri Johnson
Producer, Arranged By - David Beal , Larry Mullen
2. Theme From Mission: Impossible (Junior's Hard Mix-Edit) 4:10
Conductor [Sample] - Lalo Schifrin
Engineer [Mix] - P Dennis Mitchell*
Producer, Arranged By - David Beal , Larry Mullen
Programmed By - Joe Moskowitz*
Remix, Producer [Post Production], Mixed By, Voice [Dialogue Spoken By] - Junior Vasquez
Voice [This Tape Will Self Destruct] - Henry Czerny
3. Mission: Impossible Theme (Mission Accomplished) 3:05
4. Mission: Impossible Theme (Mission Accomplished) (Cut The Red Not The Blue) 4:35
Remix - Goldie , Rob Playford
5. Mission: Impossible Theme (Mission Accomplished) (Dave Clarke Remix) 4:30
Remix - Dave Clarke
 
Exact Audio Copy V0.99 prebeta 5 from 4. May 2009

EAC extraction logfile from 17. April 2010, 16:45

Adam Clayton & Larry Mullen / Theme From Mission: Impossible (CD Single)

Used drive : TSSTcorpCDDVDW TS-L633L Adapter: 1 ID: 0

Read mode : SecureUtilize accurate stream : YesDefeat audio cache : YesMake use of C2 pointers : No

Read offset correction : 6Overread into Lead-In and Lead-Out : NoFill up missing offset samples with silence : YesDelete leading and trailing silent blocks : NoNull samples used in CRC calculations : YesUsed interface : Native Win32 interface for Win NT & 2000Gap handling : Appended to previous track

Used output format : User Defined EncoderSelected bitrate : 768 kBit/sQuality : HighAdd ID3 tag : NoCommand line compressor : C:\Program Files\Exact Audio Copy\FLAC\FLAC.EXEAdditional command line options : -6 -V -T "ARTIST=%a" -T "TITLE=%t" -T "ALBUM=%g" -T "DATE=%y" -T "TRACKNUMBER=%n" -T "GENRE=%m" -T "COMMENT=%e" %s -o %d

TOC of the extracted CD

Track | Start | Length | Start sector | End sector --------------------------------------------------------- 1 | 0:00.00 | 3:28.60 | 0 | 15659 2 | 3:28.60 | 4:12.25 | 15660 | 34584 3 | 7:41.10 | 3:06.43 | 34585 | 48577 4 | 10:47.53 | 4:35.05 | 48578 | 69207 5 | 15:22.58 | 4:30.67 | 69208 | 89524

Track 1

Filename C:\Users\Вова\Documents\Mission Impossible\01. Adam Clayton & Larry Mullen - Theme From Mission- Impossible.wav

Pre-gap length 0:00:02.00

Peak level 100.0 % Track quality 100.0 % Test CRC 01293B5E Copy CRC 01293B5E Accurately ripped (confidence 21) [C44CE320] Copy OK

Track 2

Filename C:\Users\Вова\Documents\Mission Impossible\02. Adam Clayton & Larry Mullen - Theme From Mission- Impossible (Junior's Hard Mix-Edit).wav

Pre-gap length 0:00:00.02

Peak level 99.2 % Track quality 99.9 % Test CRC 52F4D3B5 Copy CRC 52F4D3B5 Accurately ripped (confidence 20) [1EB8F62B] Copy OK

Track 3

Filename C:\Users\Вова\Documents\Mission Impossible\03. Adam Clayton & Larry Mullen - Mission- Impossible Theme (Mission Accomplished).wav

Pre-gap length 0:00:01.25

Peak level 100.0 % Track quality 100.0 % Test CRC C89D2FDA Copy CRC C89D2FDA Accurately ripped (confidence 20) [1D10952E] Copy OK

Track 4

Filename C:\Users\Вова\Documents\Mission Impossible\04. Adam Clayton & Larry Mullen - Mission- Impossible Theme (Mission Accomplished) (Cut The Red Not The Blue).wav

Pre-gap length 0:00:01.20

Peak level 99.2 % Track quality 100.0 % Test CRC 638F4777 Copy CRC 638F4777 Accurately ripped (confidence 20) [769BD0BB] Copy OK

Track 5

Filename C:\Users\Вова\Documents\Mission Impossible\05. Adam Clayton & Larry Mullen - Mission- Impossible Theme (Mission Accomplished) (Dave Clarke Remix).wav

Peak level 99.2 % Track quality 100.0 % Test CRC A0A9BA10 Copy CRC A0A9BA10 Accurately ripped (confidence 19) [DFD6784A] Copy OK

All tracks accurately ripped

No errors occurred

End of status report
 
REM GENRE RockREM DATE 1997REM DISCID 3404A905REM COMMENT "ExactAudioCopy v0.99pb5"PERFORMER "Adam Clayton & Larry Mullen"TITLE "Theme From Mission: Impossible (CD Single)"FILE "01. Adam Clayton & Larry Mullen - Theme From Mission- Impossible.wav" WAVE TRACK 01 AUDIO TITLE "Theme From Mission: Impossible" PERFORMER "Adam Clayton & Larry Mullen" INDEX 01 00:00:00 TRACK 02 AUDIO TITLE "Theme From Mission: Impossible (Junior's Hard Mix-Edit)" PERFORMER "Adam Clayton & Larry Mullen" INDEX 00 03:28:58FILE "02. Adam Clayton & Larry Mullen - Theme From Mission- Impossible (Junior's Hard Mix-Edit).wav" WAVE INDEX 01 00:00:00 TRACK 03 AUDIO TITLE "Mission: Impossible Theme (Mission Accomplished)" PERFORMER "Adam Clayton & Larry Mullen" INDEX 00 04:11:00FILE "03. Adam Clayton & Larry Mullen - Mission- Impossible Theme (Mission Accomplished).wav" WAVE INDEX 01 00:00:00 TRACK 04 AUDIO TITLE "Mission: Impossible Theme (Mission Accomplished) (Cut The Red Not The Blue)" PERFORMER "Adam Clayton & Larry Mullen" INDEX 00 03:05:23FILE "04. Adam Clayton & Larry Mullen - Mission- Impossible Theme (Mission Accomplished) (Cut The Red Not The Blue).wav" WAVE INDEX 01 00:00:00FILE "05. Adam Clayton & Larry Mullen - Mission- Impossible Theme (Mission Accomplished) (Dave Clarke Remix).wav" WAVE TRACK 05 AUDIO TITLE "Mission: Impossible Theme (Mission Accomplished) (Dave Clarke Remix)" PERFORMER "Adam Clayton & Larry Mullen" INDEX 01 00:00:00


Трекер:  [ 08-Июл-2011 12:16 ]

  

Скачать .torrent

Размер .torrent файла 11 KB


Размер: 128 MB
Хэш (hash) релиза: cf1eaa7e76e1f79e8b1c361754361fecf28202d2

Еще никто не оставлял запись к записи скачать торрент Adam Clayton & Larry Mullen - Theme From Mission: Impossible . Будь первым!

!Обратная связь