Скачать через торрент музыку Молокососы Skins 2 - 2008, FLAC бесплатно без регистрации torrent

Если у вас наблюдаются проблемы со скриншотами, переходом по ссылками, скачиванием торрентов - проблемы в блокировщике рекламы AdBlock. #хорошегоДня!


Статистика раздачи
Размер:  494 MB   |    Зарегистрирован:  6 лет 2 месяца   |    .torrent скачан:  44 раза   |   
Раздают:  1  
   
Загрузка...
 
Автор Сообщение

Galfimbul

avatar Galfimbul



Жанр: Soundtrack
Год выпуска диска: 2008
Издатель (лейбл): Universal Australia
Аудио кодек: FLAC (*.flac)
Тип рипа: tracks+.cue
Битрейт аудио: lossless
Продолжительность: 01:18:33
Источник: WhatCD
Наличие сканов в содержимом раздачи: да
Треклист:
<div style="margin-left: 2em">01. LCD Soundsystem - North American Scum [05:29]
02. Born Ruffians - Hummingbird [03:08]
03. The Kills - Fuck The People [04:19]
04. Black Rebel Motorcycle Club - Spread Your Love [03:44]
05. The Dandy Warhols - Shakin' [03:58]
06. Battles - Atlas [04:10]
07. Lipps Inc. - Funkytown [04:01]
08. Ladyhawke - Back Of The Van [03:12]
09. Ryan Adams - Come Pick Me Up [05:16]
10. Gregory Isaacs - Objection Overruled [03:53]
11. Camera Obscura - Keep It Clean [03:15]
12. Gogol Bordello - Occurence On The Boarder [03:28]
13. Grizzly Bear - Knife [05:16]
14. King Creosate - You Are Could I? [03:55]
15. Fionn Regan - Be Good Or Be Gone [03:21]
16. Sigur Rós - Takk [01:59]
17. James Yorkston - Don't Let Me Down [05:18]
18. Broadcast - Valerie [04:05]
19. The Chemical Brothers - The Pills Won't Help You Now [06:36]</div>
 
Exact Audio Copy V0.99 prebeta 5 from 4. May 2009

EAC extraction logfile from 17. September 2010, 0:59

Various Artists / Skins 2 (OST)

Used drive : TSSTcorpCDDVDW TS-H653R Adapter: 0 ID: 1

Read mode : SecureUtilize accurate stream : YesDefeat audio cache : YesMake use of C2 pointers : No

Read offset correction : 6Overread into Lead-In and Lead-Out : NoFill up missing offset samples with silence : YesDelete leading and trailing silent blocks : NoNull samples used in CRC calculations : YesUsed interface : Native Win32 interface for Win NT & 2000Gap handling : Appended to previous track

Used output format : User Defined EncoderSelected bitrate : 512 kBit/sQuality : HighAdd ID3 tag : NoCommand line compressor : C:\Program Files (x86)\Exact Audio Copy\flac_1.2.1\flac.exeAdditional command line options : -V -8 -T "artist=%a" -T "title=%t" -T "album=%g" -T "date=%y" -T "tracknumber=%n" -T "genre=%m" %s

TOC of the extracted CD

Track | Start | Length | Start sector | End sector --------------------------------------------------------- 1 | 0:00.00 | 5:29.03 | 0 | 24677 2 | 5:29.03 | 3:08.47 | 24678 | 38824 3 | 8:37.50 | 4:19.50 | 38825 | 58299 4 | 12:57.25 | 3:44.51 | 58300 | 75150 5 | 16:42.01 | 3:58.01 | 75151 | 93001 6 | 20:40.02 | 4:10.58 | 93002 | 111809 7 | 24:50.60 | 4:01.45 | 111810 | 129929 8 | 28:52.30 | 3:12.64 | 129930 | 144393 9 | 32:05.19 | 5:16.54 | 144394 | 168147 10 | 37:21.73 | 3:53.74 | 168148 | 185696 11 | 41:15.72 | 3:15.37 | 185697 | 200358 12 | 44:31.34 | 3:28.18 | 200359 | 215976 13 | 47:59.52 | 5:16.39 | 215977 | 239715 14 | 53:16.16 | 3:55.58 | 239716 | 257398 15 | 57:11.74 | 3:21.22 | 257399 | 272495 16 | 60:33.21 | 1:59.71 | 272496 | 281491 17 | 62:33.17 | 5:18.39 | 281492 | 305380 18 | 67:51.56 | 4:05.32 | 305381 | 323787 19 | 71:57.13 | 6:36.47 | 323788 | 353534

Track 1

Filename C:\musik\EAC\Skins 2 (OST) - 2008\01 - LCD Soundsystem - North American Scum.wav

Pre-gap length 0:00:02.00

Peak level 98.0 % Track quality 99.9 % Test CRC C4DA66FA Copy CRC C4DA66FA Track not present in AccurateRip database Copy OK

Track 2

Filename C:\musik\EAC\Skins 2 (OST) - 2008\02 - Born Ruffians - Hummingbird.wav

Pre-gap length 0:00:01.77

Peak level 92.2 % Track quality 99.9 % Test CRC 9635843C Copy CRC 9635843C Track not present in AccurateRip database Copy OK

Track 3

Filename C:\musik\EAC\Skins 2 (OST) - 2008\03 - The Kills - Fuck The People.wav

Pre-gap length 0:00:01.74

Peak level 87.9 % Track quality 99.9 % Test CRC 021D9BCB Copy CRC 021D9BCB Track not present in AccurateRip database Copy OK

Track 4

Filename C:\musik\EAC\Skins 2 (OST) - 2008\04 - Black Rebel Motorcycle Club - Spread Your Love.wav

Pre-gap length 0:00:01.76

Peak level 72.4 % Track quality 100.0 % Test CRC C329C2BF Copy CRC C329C2BF Track not present in AccurateRip database Copy OK

Track 5

Filename C:\musik\EAC\Skins 2 (OST) - 2008\05 - The Dandy Warhols - Shakin'.wav

Pre-gap length 0:00:01.76

Peak level 89.1 % Track quality 100.0 % Test CRC E33DC1BF Copy CRC E33DC1BF Track not present in AccurateRip database Copy OK

Track 6

Filename C:\musik\EAC\Skins 2 (OST) - 2008\06 - Battles - Atlas.wav

Pre-gap length 0:00:01.76

Peak level 99.8 % Track quality 100.0 % Test CRC 8D05AEC6 Copy CRC 8D05AEC6 Track not present in AccurateRip database Copy OK

Track 7

Filename C:\musik\EAC\Skins 2 (OST) - 2008\07 - Lipps Inc. - Funkytown.wav

Pre-gap length 0:00:01.76

Peak level 85.2 % Track quality 100.0 % Test CRC 2D397B2B Copy CRC 2D397B2B Track not present in AccurateRip database Copy OK

Track 8

Filename C:\musik\EAC\Skins 2 (OST) - 2008\08 - Ladyhawke - Back Of The Van.wav

Pre-gap length 0:00:01.76

Peak level 99.8 % Track quality 100.0 % Test CRC BE5EAB98 Copy CRC BE5EAB98 Track not present in AccurateRip database Copy OK

Track 9

Filename C:\musik\EAC\Skins 2 (OST) - 2008\09 - Ryan Adams - Come Pick Me Up.wav

Pre-gap length 0:00:01.76

Peak level 99.8 % Track quality 100.0 % Test CRC 41FFCD03 Copy CRC 41FFCD03 Track not present in AccurateRip database Copy OK

Track 10

Filename C:\musik\EAC\Skins 2 (OST) - 2008\10 - Gregory Isaacs - Objection Overruled.wav

Pre-gap length 0:00:01.74

Peak level 99.8 % Track quality 100.0 % Test CRC 8DD0743D Copy CRC 8DD0743D Track not present in AccurateRip database Copy OK

Track 11

Filename C:\musik\EAC\Skins 2 (OST) - 2008\11 - Camera Obscura - Keep It Clean.wav

Pre-gap length 0:00:01.76

Peak level 99.8 % Track quality 100.0 % Test CRC 0CE3409F Copy CRC 0CE3409F Track not present in AccurateRip database Copy OK

Track 12

Filename C:\musik\EAC\Skins 2 (OST) - 2008\12 - Gogol Bordello - Occurence On The Boarder.wav

Pre-gap length 0:00:01.76

Peak level 99.8 % Track quality 100.0 % Test CRC 58565937 Copy CRC 58565937 Track not present in AccurateRip database Copy OK

Track 13

Filename C:\musik\EAC\Skins 2 (OST) - 2008\13 - Grizzly Bear - Knife.wav

Pre-gap length 0:00:01.76

Peak level 99.8 % Track quality 100.0 % Test CRC 126D7FE7 Copy CRC 126D7FE7 Track not present in AccurateRip database Copy OK

Track 14

Filename C:\musik\EAC\Skins 2 (OST) - 2008\14 - King Creosate - You Are Could I .wav

Pre-gap length 0:00:01.74

Peak level 99.8 % Track quality 99.9 % Test CRC 613CEE82 Copy CRC 613CEE82 Track not present in AccurateRip database Copy OK

Track 15

Filename C:\musik\EAC\Skins 2 (OST) - 2008\15 - Fionn Regan - Be Good Or Be Gone.wav

Pre-gap length 0:00:01.77

Peak level 88.1 % Track quality 100.0 % Test CRC 03F86593 Copy CRC 03F86593 Track not present in AccurateRip database Copy OK

Track 16

Filename C:\musik\EAC\Skins 2 (OST) - 2008\16 - Sigur Rуs - Takk.wav

Pre-gap length 0:00:01.76

Peak level 74.9 % Track quality 100.0 % Test CRC ECA0571F Copy CRC ECA0571F Track not present in AccurateRip database Copy OK

Track 17

Filename C:\musik\EAC\Skins 2 (OST) - 2008\17 - James Yorkston - Don't Let Me Down.wav

Pre-gap length 0:00:01.76

Peak level 98.9 % Track quality 100.0 % Test CRC FD65A746 Copy CRC FD65A746 Track not present in AccurateRip database Copy OK

Track 18

Filename C:\musik\EAC\Skins 2 (OST) - 2008\18 - Broadcast - Valerie.wav

Pre-gap length 0:00:01.76

Peak level 99.8 % Track quality 100.0 % Test CRC 7E3FABAC Copy CRC 7E3FABAC Track not present in AccurateRip database Copy OK

Track 19

Filename C:\musik\EAC\Skins 2 (OST) - 2008\19 - The Chemical Brothers - The Pills Won't Help You Now.wav

Pre-gap length 0:00:01.76

Peak level 91.2 % Track quality 100.0 % Test CRC 0178304B Copy CRC 0178304B Track not present in AccurateRip database Copy OK

None of the tracks are present in the AccurateRip database

No errors occurred

End of status report
 
REM GENRE SoundtrackREM DATE 2008REM DISCID 1A126913REM COMMENT "ExactAudioCopy v0.99pb5"PERFORMER "Various Artists"TITLE "Skins 2 (OST)"FILE "01 - LCD Soundsystem - North American Scum.flac" WAVE TRACK 01 AUDIO TITLE "North American Scum" PERFORMER "LCD Soundsystem" INDEX 01 00:00:00 TRACK 02 AUDIO TITLE "Hummingbird" PERFORMER "Born Ruffians" INDEX 00 05:27:20FILE "02 - Born Ruffians - Hummingbird.flac" WAVE INDEX 01 00:00:00 TRACK 03 AUDIO TITLE "Fuck The People" PERFORMER "The Kills" INDEX 00 03:06:66FILE "03 - The Kills - Fuck The People.flac" WAVE INDEX 01 00:00:00 TRACK 04 AUDIO TITLE "Spread Your Love" PERFORMER "Black Rebel Motorcycle Club" INDEX 00 04:17:68FILE "04 - Black Rebel Motorcycle Club - Spread Your Love.flac" WAVE INDEX 01 00:00:00 TRACK 05 AUDIO TITLE "Shakin'" PERFORMER "The Dandy Warhols" INDEX 00 03:42:69FILE "05 - The Dandy Warhols - Shakin'.flac" WAVE INDEX 01 00:00:00 TRACK 06 AUDIO TITLE "Atlas" PERFORMER "Battles" INDEX 00 03:56:19FILE "06 - Battles - Atlas.flac" WAVE INDEX 01 00:00:00 TRACK 07 AUDIO TITLE "Funkytown" PERFORMER "Lipps Inc." INDEX 00 04:09:01FILE "07 - Lipps Inc. - Funkytown.flac" WAVE INDEX 01 00:00:00 TRACK 08 AUDIO TITLE "Back Of The Van" PERFORMER "Ladyhawke" INDEX 00 03:59:63FILE "08 - Ladyhawke - Back Of The Van.flac" WAVE INDEX 01 00:00:00 TRACK 09 AUDIO TITLE "Come Pick Me Up" PERFORMER "Ryan Adams" INDEX 00 03:11:07FILE "09 - Ryan Adams - Come Pick Me Up.flac" WAVE INDEX 01 00:00:00 TRACK 10 AUDIO TITLE "Objection Overruled" PERFORMER "Gregory Isaacs" INDEX 00 05:14:73FILE "10 - Gregory Isaacs - Objection Overruled.flac" WAVE INDEX 01 00:00:00 TRACK 11 AUDIO TITLE "Keep It Clean" PERFORMER "Camera Obscura" INDEX 00 03:52:17FILE "11 - Camera Obscura - Keep It Clean.flac" WAVE INDEX 01 00:00:00 TRACK 12 AUDIO TITLE "Occurence On The Boarder" PERFORMER "Gogol Bordello" INDEX 00 03:13:55FILE "12 - Gogol Bordello - Occurence On The Boarder.flac" WAVE INDEX 01 00:00:00 TRACK 13 AUDIO TITLE "Knife" PERFORMER "Grizzly Bear" INDEX 00 03:26:36FILE "13 - Grizzly Bear - Knife.flac" WAVE INDEX 01 00:00:00 TRACK 14 AUDIO TITLE "You Are Could I?" PERFORMER "King Creosate" INDEX 00 05:14:58FILE "14 - King Creosate - You Are Could I .flac" WAVE INDEX 01 00:00:00 TRACK 15 AUDIO TITLE "Be Good Or Be Gone" PERFORMER "Fionn Regan" INDEX 00 03:54:00FILE "15 - Fionn Regan - Be Good Or Be Gone.flac" WAVE INDEX 01 00:00:00 TRACK 16 AUDIO TITLE "Takk" PERFORMER "Sigur Rуs" INDEX 00 03:19:40FILE "16 - Sigur Rуs - Takk.flac" WAVE INDEX 01 00:00:00 TRACK 17 AUDIO TITLE "Don't Let Me Down" PERFORMER "James Yorkston" INDEX 00 01:58:14FILE "17 - James Yorkston - Don't Let Me Down.flac" WAVE INDEX 01 00:00:00 TRACK 18 AUDIO TITLE "Valerie" PERFORMER "Broadcast" INDEX 00 05:16:57FILE "18 - Broadcast - Valerie.flac" WAVE INDEX 01 00:00:00 TRACK 19 AUDIO TITLE "The Pills Won't Help You Now" PERFORMER "The Chemical Brothers" INDEX 00 04:03:50FILE "19 - The Chemical Brothers - The Pills Won't Help You Now.flac" WAVE INDEX 01 00:00:00
 
REM GENRE SoundtrackREM DATE 2008REM DISCID 1A126913REM COMMENT "ExactAudioCopy v0.99pb5"PERFORMER "Various Artists"TITLE "Skins 2 (OST)"FILE "01 - LCD Soundsystem - North American Scum.wav" WAVE TRACK 01 AUDIO TITLE "North American Scum" PERFORMER "LCD Soundsystem" INDEX 01 00:00:00 TRACK 02 AUDIO TITLE "Hummingbird" PERFORMER "Born Ruffians" INDEX 00 05:27:20FILE "02 - Born Ruffians - Hummingbird.wav" WAVE INDEX 01 00:00:00 TRACK 03 AUDIO TITLE "Fuck The People" PERFORMER "The Kills" INDEX 00 03:06:66FILE "03 - The Kills - Fuck The People.wav" WAVE INDEX 01 00:00:00 TRACK 04 AUDIO TITLE "Spread Your Love" PERFORMER "Black Rebel Motorcycle Club" INDEX 00 04:17:68FILE "04 - Black Rebel Motorcycle Club - Spread Your Love.wav" WAVE INDEX 01 00:00:00 TRACK 05 AUDIO TITLE "Shakin'" PERFORMER "The Dandy Warhols" INDEX 00 03:42:69FILE "05 - The Dandy Warhols - Shakin'.wav" WAVE INDEX 01 00:00:00 TRACK 06 AUDIO TITLE "Atlas" PERFORMER "Battles" INDEX 00 03:56:19FILE "06 - Battles - Atlas.wav" WAVE INDEX 01 00:00:00 TRACK 07 AUDIO TITLE "Funkytown" PERFORMER "Lipps Inc." INDEX 00 04:09:01FILE "07 - Lipps Inc. - Funkytown.wav" WAVE INDEX 01 00:00:00 TRACK 08 AUDIO TITLE "Back Of The Van" PERFORMER "Ladyhawke" INDEX 00 03:59:63FILE "08 - Ladyhawke - Back Of The Van.wav" WAVE INDEX 01 00:00:00 TRACK 09 AUDIO TITLE "Come Pick Me Up" PERFORMER "Ryan Adams" INDEX 00 03:11:07FILE "09 - Ryan Adams - Come Pick Me Up.wav" WAVE INDEX 01 00:00:00 TRACK 10 AUDIO TITLE "Objection Overruled" PERFORMER "Gregory Isaacs" INDEX 00 05:14:73FILE "10 - Gregory Isaacs - Objection Overruled.wav" WAVE INDEX 01 00:00:00 TRACK 11 AUDIO TITLE "Keep It Clean" PERFORMER "Camera Obscura" INDEX 00 03:52:17FILE "11 - Camera Obscura - Keep It Clean.wav" WAVE INDEX 01 00:00:00 TRACK 12 AUDIO TITLE "Occurence On The Boarder" PERFORMER "Gogol Bordello" INDEX 00 03:13:55FILE "12 - Gogol Bordello - Occurence On The Boarder.wav" WAVE INDEX 01 00:00:00 TRACK 13 AUDIO TITLE "Knife" PERFORMER "Grizzly Bear" INDEX 00 03:26:36FILE "13 - Grizzly Bear - Knife.wav" WAVE INDEX 01 00:00:00 TRACK 14 AUDIO TITLE "You Are Could I?" PERFORMER "King Creosate" INDEX 00 05:14:58FILE "14 - King Creosate - You Are Could I .wav" WAVE INDEX 01 00:00:00 TRACK 15 AUDIO TITLE "Be Good Or Be Gone" PERFORMER "Fionn Regan" INDEX 00 03:54:00FILE "15 - Fionn Regan - Be Good Or Be Gone.wav" WAVE INDEX 01 00:00:00 TRACK 16 AUDIO TITLE "Takk" PERFORMER "Sigur Rós" INDEX 00 03:19:40FILE "16 - Sigur Rós - Takk.wav" WAVE INDEX 01 00:00:00 TRACK 17 AUDIO TITLE "Don't Let Me Down" PERFORMER "James Yorkston" INDEX 00 01:58:14FILE "17 - James Yorkston - Don't Let Me Down.wav" WAVE INDEX 01 00:00:00 TRACK 18 AUDIO TITLE "Valerie" PERFORMER "Broadcast" INDEX 00 05:16:57FILE "18 - Broadcast - Valerie.wav" WAVE INDEX 01 00:00:00 TRACK 19 AUDIO TITLE "The Pills Won't Help You Now" PERFORMER "The Chemical Brothers" INDEX 00 04:03:50FILE "19 - The Chemical Brothers - The Pills Won't Help You Now.wav" WAVE INDEX 01 00:00:00


Трекер:  [ 08-Июл-2011 02:04 ]

  

Скачать .torrent

Размер .torrent файла 41 KB


Размер: 494 MB
Хэш (hash) релиза: bf31ca457894ecf5ec732f92b4a7fb5d28ebb6a6

Еще никто не оставлял запись к записи скачать торрент Молокососы Skins 2 - 2008, FLAC . Будь первым!

!Обратная связь