Скачать через торрент Нищебог же! Binbougami ga! бесплатно Аниме Все серии на русском torrent

Если у вас наблюдаются проблемы со скриншотами, переходом по ссылками, скачиванием торрентов - проблемы в блокировщике рекламы AdBlock. #хорошегоДня!


Статистика раздачи
Размер:  12.89 GB   |    Зарегистрирован:  4 года 9 месяцев   |    .torrent скачан:  25 раз   |   
Раздают:  1  
   
Загрузка...
 
Автор Сообщение

L



Год выпуска: 2012
Страна: Япония
Жанр: приключения, комедия, пародия
Продолжительность: 13 эп., 25 мин.
Перевод:

русские субтитры от BO3DYX (полные/вспомогательные)
Режиссер: Фудзита Ёити
Студия:
Описание:
У 16-летней Итико Сакуры есть все – здоровье, красота, богатство и неплохие мозги под оболочкой пепельной блондинки. Причина объяснима – Сакура обладает способностью притягивать «энергию счастья», дополняя немалый запас от рождения еще и чужой фортуной. Подобный вампиризм приносит несчастье окружающим – в итоге девушка одинока, живет лишь со старым дворецким, не имеет друзей и считает остальных существами второго сорта. Богиня злосчастья Момидзи прибывает, чтобы исправить дисбаланс – и с ходу терпит обиднейшее фиаско! Итико не так проста – в ее жилах, похоже, течет кровь богов удачи, что позволяет не только на равных сражаться с небесной гостьей, но и от души обзывать ее плоскодонкой!

Что ж, богине спешить некуда, и она перешла от штурма к планомерной осаде, стараясь изучить своего врага, его силу и слабости. Постоянные схватки пошли на пользу обеим героиням: одна обрела волю и мотивацию, а другая стала думать и работать над собой. Момидзи поняла, что вместо грубого опустошения должна помочь своей новой знакомой, а может, и дальней родственнице, постепенно стать проще и лучше. До Итико тоже стало доходить, что жить веселее, если тратить благословение судьбы не только на себя. Иначе что это за энергия счастья, если не с кем даже съесть праздничный пирог?!
© Hollow, World Art
Информационные ссылки: AniDB || World Art || MAL
Качество: BDRip
Энкод: Winter - RG Pantheon
Тип видео: без хардсаба
Формат: mkv
Видео: x264 (Hi10p), 1280x720, ~3300 Kbps, 23,976 fps
Аудио JAP: Vorbis, 48000Hz, ~256 Kbps, 2ch
Аудио RUS 1-11: AC3, 48000Hz, 192 Kbps, 2ch
одноголосая (муж.) от Carrier88
одноголосая (муж.) от Bagel
одноголосая (муж.) от Mustadio
одноголосая (муж.) от Simbad
одноголосая (муж.) от Zetsubou

двухголосая (муж./жен.) от fynnley & MIKS (RG Lucky Clover & Opendub)
двухголосая (муж./жен.) от Persona99 & Vulpes Vulpes (GetSmart)
двухголосая (муж./жен.) от Eladiel & Zendos (Anilibria) [1-9]
двухголосая (муж./жен.) от JAM & Kiara_Laine [1-7], одноголосая (муж.) от JAM [8-13] (Animedia)
двухголосая (муж./жен.) от Mukuro & Lali (Anifilm)
двухголосая (муж./жен.) от Shina & Pandora (AniDub)
01. You May Be a God, but Aren`t You More Like the God of Flatness Than the God of Misfortune?
02. This, Indeed, Has the "The Battle Between God and Girl Now Begins" Feel To It
03. Taking Orders from You Kinda Ticks Me Off!!! What Do You Mean, Kinda?!!
04. He Shrank, Didn`t He?!
05. Which One of Us Is Flat-Chested, Again? Hm? Hm?! Hm!!?
06. Open Your Eye-es!!!!
07. Is This That So-Called Boy-Raised-As-a-Girl Pattern?
08. Call Me By My Name
09. "Eh?! You Said, `After All This`?!" & "There`s No Way That Happens After Just Two Minutes!!!!"
10. It`s Like Secretly Mixing Pumpkin into a Stew in Order to Feed It to a Child Who Hates Pumpkin
11. ...Who Are You?!
12. Sometime, Call Me By My Name
13. You Already Have the Answer to That
Общее
Уникальный идентификатор : 238990444625143764939430308798417129881 (0xB3CBE2A7C752DC27867FA45039ACD199)
Полное имя : Z:\Anime\720p\Binbougami ga! [BD] [720p]\[Winter] Binbougami ga! 01 [BDrip 1280x720 x264 Vorbis].mkv
Формат : Matroska
Версия формата : Version 2
Размер файла : 659 Мбайт
Продолжительность : 23 м.
Режим общего битрейта : Переменный
Общий поток : 3863 Кбит/сек
Дата кодирования : UTC 2012-11-18 19:02:25
Программа кодирования : mkvmerge v2.9.8 ('C'est le bon') built on Aug 13 2009 12:49:06
Библиотека кодирования : libebml v0.7.7 + libmatroska v0.8.1

Видео
Идентификатор : 1
Формат : AVC
Формат/Информация : Advanced Video Codec
Профиль формата : High 10@L4.1
Параметр CABAC формата : Да
Параметр ReFrames формата : 9 кадров
Идентификатор кодека : V_MPEG4/ISO/AVC
Продолжительность : 23 м.
Битрейт : 3530 Кбит/сек
Ширина : 1280 пикселей
Высота : 720 пикселей
Соотношение сторон : 16:9
Режим частоты кадров : Постоянный
Частота кадров : 23,976 кадра/сек
Цветовое пространство : YUV
Субдискретизация насыщенности : 4:2:0
Битовая глубина : 10 бит
Тип развёртки : Прогрессивная
Бит/(Пиксели*Кадры) : 0.160
Размер потока : 603 Мбайт (91%)
Библиотека кодирования : x264 core 129 r2230 1cffe9f
Настройки программы : cabac=1 / ref=9 / deblock=1:-2:-2 / analyse=0x3:0x133 / me=umh / subme=9 / psy=1 / psy_rd=0.90:0.00 / mixed_ref=1 / me_range=24 / chroma_me=1 / trellis=2 / 8x8dct=1 / cqm=0 / deadzone=21,11 / fast_pskip=1 / chroma_qp_offset=-2 / threads=6 / lookahead_threads=1 / sliced_threads=0 / nr=0 / decimate=0 / interlaced=0 / bluray_compat=0 / constrained_intra=0 / bframes=8 / b_pyramid=2 / b_adapt=2 / b_bias=0 / direct=1 / weightb=1 / open_gop=0 / weightp=2 / keyint=250 / keyint_min=23 / scenecut=40 / intra_refresh=0 / rc=crf / mbtree=0 / crf=15.7 / qcomp=0.70 / qpmin=9 / qpmax=40 / qpstep=4 / ip_ratio=1.40 / pb_ratio=1.30 / aq=1:0.90
Default : Нет
Forced : Нет

Аудио
Идентификатор : 2
Формат : Vorbis
Параметр Floor формата : 1
Идентификатор кодека : A_VORBIS
Продолжительность : 23 м.
Вид битрейта : Переменный
Битрейт : 256 Кбит/сек
Каналы : 2 канала
Частота : 48,0 КГц
Метод сжатия : С потерями
Размер потока : 43,7 Мбайт (7%)
Библиотека кодирования : libVorbis (Schaufenugget) (20101101 (Schaufenugget))
Язык : Japanese
Default : Да
Forced : Нет




Трекер:  [ 27-Фев-2013 09:21 ]

  

Скачать .torrent

Размер .torrent файла 85 KB


Размер: 12.89 GB
Хэш (hash) релиза: 770ca2406797778fe14703b3c38a10f432e6880e
Подписка на обновления:

Торренты, похожие на Нищебог же! Binbougami ga! скачать торрент

Форум Название Автор Размер S L Добавлен
Аниме | HD Rips ·· Нищебог же! / Binbougami ga! / Binbo-gami ga! [TV] [01-09 из 13] [Без хардсаба] [RUS(int)] [2012 г., приключения, комедия, пародия, BDRip] [720p] Polarnik 37598707493.5 GB 0 0 1364935171

23:39

2-Апр-13

Аниме | HD Rips ·· Нищебог же! / Binbougami ga! / Binbo-gami ga! [TV] [13 из 13] [Без хардсаба] [JAP, SUB] [2012 г., приключения, комедия, пародия, BDRip] [1080p] Galfimbul 1816659177416.92 GB 0 0 1364030355

12:19

23-Мар-13

Аниме | HD Rips ·· Нищебог же! / Binbougami ga! (Фудзита Ёити) [TV] [13 из 13] [без хардсаба] [RUS(ext), JAP+SUB] [2012 г., приключения, комедия, пародия, BDRip] [1080p] Polarnik 3913084788536.44 GB 0 0 1369643636

11:33

27-Май-13

Аниме | HD Rips ·· Нищебог же! / Binbougami ga! [TV] [01-10 из 12] [Без хардсаба] [RUS(int), JAP+SUB] [2012 г., приключения, комедия, фэнтези, мистика, пародия, HDTVRip] [720p] Polarnik 38078517433.55 GB 0 0 1348225740

14:09

21-Сен-12

Аниме | HD Rips ·· Нищебог же! / Binbougami ga! (Фудзита Ёити) [TV] [7 из 13] [Без хардсаба] [JAP+SUB] [2012 г., комедия, приключения, мистика, пародия, HDTVRip] [720p] Galfimbul 22887300072.13 GB 0 0 1345878900

10:15

25-Авг-12

Аниме | HD Rips ·· Нищебог же! / Binbougami ga! [TV] [7 из >13] [Без хардсаба] [RUS(int), JAP] [2012 г., комедия, приключения, мистика, пародия, HDTVRip] [720p] Galfimbul 27578449382.57 GB 0 0 1345878900

10:15

25-Авг-12

Еще никто не оставлял запись к записи скачать торрент Нищебог же! Binbougami ga! . Будь первым!

!Обратная связь