Скачать через торрент музыку Love Actually Реальная любовь бесплатно без регистрации torrent

Если у вас наблюдаются проблемы со скриншотами, переходом по ссылками, скачиванием торрентов - проблемы в блокировщике рекламы AdBlock. #хорошегоДня!


Статистика раздачи
Размер:  411 MB   |    Зарегистрирован:  6 лет 3 месяца   |    .torrent скачан:  47 раз   |   
Раздают:  1  
   
Загрузка...
 
Автор Сообщение

Galfimbul

avatar Galfimbul


Love Actually: Original Motion Picture Soundtrack

Жанр: Rock, Pop, Soundtrack
Год выпуска диска: 2003
Производитель диска: United States, J Records 82876-56760-2
Аудио кодек: APE
Тип рипа: image+.cue
Битрейт аудио: lossless
Продолжительность: 01:16:00
Трэклист:
01. Kelly Clarkson - The Trouble With Love Is
02. Dido - Here With Me
03. Maroon 5 - Sweetest Goodbye
04. Norah Jones - Turn Me On
05. Wyclef Jean - Take Me As I Am (feat. Sharissa)
06. Eva Cassidy - Songbird
07. The Calling - Wherever You Will Go
08. The Pointer Sisters - Jump (For My Love)
09. Joni Mitchell - Both Sides Now
10. Lynden David Hall - All You Need Is Love
11. The Beach Boys - God Only Knows
12. Texas - I’ll See It Through
13. Sugababes - Too Lost In You
14. Craig Armstrong - Glasgow Love Theme
15. Otis Redding - White Christmas
16. Billy Mack - Christmas Is All Around
17. Olivia Olson - All I Want For Christmas Is You
 
Exact Audio Copy V0.99 prebeta 4 from 23. January 2008

Отчёт EAC об извлечении, выполненном 31. августа 2008, 20:10

Various / Love Actually (OST)

Дисковод: HL-DT-STDVD-RAM GSA-H50N Adapter: 0 ID: 0

Режим чтения : ДостоверностьИспользование точного потока : ДаОтключение кэша аудио : ДаИспользование указателей C2 : Нет

Коррекция смещения при чтении : 102Способность читать области Lead-in и Lead-out : НетЗаполнение пропущенных сэмплов тишиной : ДаУдаление блоков с тишиной в начале и конце : НетПри вычислениях CRC использовались нулевые сэмплы : ДаИнтерфейс : Встроенный Win32-интерфейс для Win NT/2000

Выходной формат : Внутренние WAV-операцииФормат сэмплов : 44.100 Гц; 16 бит; стерео

TOC извлечённого CD

Трек | Старт | Длительность | Начальный сектор | Конечный сектор --------------------------------------------------------------------- 1 | 0:00.00 | 3:42.45 | 0 | 16694 2 | 3:42.45 | 4:15.02 | 16695 | 35821 3 | 7:57.47 | 5:46.05 | 35822 | 61776 4 | 13:43.52 | 2:34.70 | 61777 | 73396 5 | 16:18.47 | 4:18.43 | 73397 | 92789 6 | 20:37.15 | 3:45.30 | 92790 | 109694 7 | 24:22.45 | 3:29.40 | 109695 | 125409 8 | 27:52.10 | 4:23.65 | 125410 | 145199 9 | 32:16.00 | 5:46.30 | 145200 | 171179 10 | 38:02.30 | 3:30.40 | 171180 | 186969 11 | 41:32.70 | 2:54.39 | 186970 | 200058 12 | 44:27.34 | 4:05.46 | 200059 | 218479 13 | 48:33.05 | 4:13.00 | 218480 | 237454 14 | 52:46.05 | 2:05.70 | 237455 | 246899 15 | 54:52.00 | 3:07.34 | 246900 | 260958 16 | 57:59.34 | 3:50.36 | 260959 | 278244 17 | 61:49.70 | 3:27.22 | 278245 | 293791

Характеристики диапазона извлечения и сообщения об ошибках

Выбранный диапазон

Имя файла D:\Various - Love Actually (OST).wav

Пиковый уровень 100.0 % Качество диапазона 100.0 % CRC копии C7807704 Копирование... OK

Ошибок не произошло

AccurateRip: сводка

Трек 1 точное извлечение (доверие 18) [8E32FE7F]Трек 2 точное извлечение (доверие 21) [83924ABF]Трек 3 точное извлечение (доверие 21) [8F543048]Трек 4 точное извлечение (доверие 21) [B05114B7]Трек 5 точное извлечение (доверие 21) [FDE79FAE]Трек 6 точное извлечение (доверие 21) [44DDA0A3]Трек 7 точное извлечение (доверие 20) [9C02E3A2]Трек 8 точное извлечение (доверие 21) [2AEE6111]Трек 9 точное извлечение (доверие 22) [788B4032]Трек 10 точное извлечение (доверие 21) [D5DD6902]Трек 11 точное извлечение (доверие 22) [E174D39D]Трек 12 точное извлечение (доверие 21) [5DBDEEA9]Трек 13 точное извлечение (доверие 21) [9ED92BB1]Трек 14 точное извлечение (доверие 21) [6AE52E71]Трек 15 точное извлечение (доверие 21) [800CCF8A]Трек 16 точное извлечение (доверие 21) [9F5F2784]Трек 17 точное извлечение (доверие 19) [D65B38A2]

Все треки извлечены точно

Конец отчёта


Трекер:  [ 08-Июл-2011 02:06 ]

  

Скачать .torrent

Размер .torrent файла 17 KB


Размер: 411 MB
Хэш (hash) релиза: 813d59edb74169d611d65eca1438a6b2521b9e83

Еще никто не оставлял запись к записи скачать торрент Love Actually Реальная любовь . Будь первым!

!Обратная связь