Скачать через торрент музыку Молокососы Skins бесплатно без регистрации torrent

Если у вас наблюдаются проблемы со скриншотами, переходом по ссылками, скачиванием торрентов - проблемы в блокировщике рекламы AdBlock. #хорошегоДня!


Статистика раздачи
Размер:  522 MB   |    Зарегистрирован:  6 лет 2 месяца   |    .torrent скачан:  34 раза   |   
Раздают:  1  
   
Загрузка...
 
Автор Сообщение

Galfimbul

avatar Galfimbul



Жанр: Soundtrack
Год выпуска диска: 2007
Производитель диска: UK, Universal UK
Аудио кодек: FLAC
Тип рипа: tracks+.cue
Битрейт аудио: lossless
Продолжительность: 01:18:43
Трэклист:
<div style="margin-left: 2em">01. Fat Segal - Skins Theme Tune [03:42]
02. Gossip - Standing In The Way Of Control (Soulwax Mix) [06:53]
03. Bloc Party - Positive Tension [03:55]
04. Yeah Yeah Yeahs - Date With The Night [02:34]
05. Adam And The Ants - Prince Charming [03:17]
06. Archie Bronson Outfit - Dart For My Sweetheart [04:31]
07. The Earlies - Kelly Brown [02:13]
08. DJ Shadow - Mongrel... Meets His Maker [05:19]
09. Tricky - Hell Around The Corner [03:46]
10. Skream - Colourful [05:12]
11. Broken Family Band - It's All Over [03:46]
12. Roots Manuva - Witness The Fitness [04:14]
13. The Hives - No Pun Intended [02:18]
14. The Fall - Totally Wired [03:25]
15. John Martyn - May You Never [03:42]
16. Shuggie Otis - Ah Uh Mi Hed [04:15]
17. Broadcast - Hammer Without A Master [04:58]
18. The Brian Jonestown Massacre - You Look Great When I'm Fucked Up [06:52]
19. Mike Bailey (Sid) - Wild World [03:42]</div>
 
Exact Audio Copy V0.99 prebeta 5 from 4. May 2009

EAC extraction logfile from 12. November 2009, 13:56

Various / Skins

Used drive : HL-DT-STDVDRAM GH22NS40 Adapter: 0 ID: 1

Read mode : SecureUtilize accurate stream : YesDefeat audio cache : YesMake use of C2 pointers : No

Read offset correction : 667Overread into Lead-In and Lead-Out : NoFill up missing offset samples with silence : YesDelete leading and trailing silent blocks : NoNull samples used in CRC calculations : YesUsed interface : Installed external ASPI interfaceGap handling : Appended to previous track

Used output format : User Defined EncoderSelected bitrate : 320 kBit/sQuality : HighAdd ID3 tag : NoCommand line compressor : C:\Program Files\Exact Audio Copy\Flac\flac.exeAdditional command line options : -V -8 -T "artist=%a" -T "title=%t" -T "album=%g" -T "date=%y" -T "tracknumber=%n" -T "genre=%m" %s

TOC of the extracted CD

Track | Start | Length | Start sector | End sector --------------------------------------------------------- 1 | 0:00.00 | 3:42.29 | 0 | 16678 2 | 3:42.29 | 6:53.45 | 16679 | 47698 3 | 10:35.74 | 3:55.14 | 47699 | 65337 4 | 14:31.13 | 2:34.65 | 65338 | 76952 5 | 17:06.03 | 3:17.03 | 76953 | 91730 6 | 20:23.06 | 4:31.39 | 91731 | 112094 7 | 24:54.45 | 2:13.56 | 112095 | 122125 8 | 27:08.26 | 5:19.09 | 122126 | 146059 9 | 32:27.35 | 3:46.52 | 146060 | 163061 10 | 36:14.12 | 5:12.57 | 163062 | 186518 11 | 41:26.69 | 3:46.16 | 186519 | 203484 12 | 45:13.10 | 4:14.56 | 203485 | 222590 13 | 49:27.66 | 2:18.04 | 222591 | 232944 14 | 51:45.70 | 3:25.30 | 232945 | 248349 15 | 55:11.25 | 3:42.18 | 248350 | 265017 16 | 58:53.43 | 4:15.40 | 265018 | 284182 17 | 63:09.08 | 4:58.56 | 284183 | 306588 18 | 68:07.64 | 6:52.65 | 306589 | 337553 19 | 75:00.54 | 3:42.35 | 337554 | 354238

Track 1

Filename C:\EACrips\Skins Theme Tune.wav

Pre-gap length 0:00:02.00

Peak level 99.8 % Track quality 100.0 % Test CRC F39C9083 Copy CRC F39C9083 Track not present in AccurateRip database Copy OK

Track 2

Filename C:\EACrips\Standing In The Way Of Control (Soulwax Mix).wav

Pre-gap length 0:00:00.52

Peak level 89.1 % Track quality 100.0 % Test CRC 3C87D448 Copy CRC 3C87D448 Track not present in AccurateRip database Copy OK

Track 3

Filename C:\EACrips\Positive Tension.wav

Pre-gap length 0:00:00.60

Peak level 99.8 % Track quality 100.0 % Test CRC F2337EA4 Copy CRC F2337EA4 Track not present in AccurateRip database Copy OK

Track 4

Filename C:\EACrips\Date With The Night.wav

Pre-gap length 0:00:00.96

Peak level 97.0 % Track quality 100.0 % Test CRC 715E628E Copy CRC 715E628E Track not present in AccurateRip database Copy OK

Track 5

Filename C:\EACrips\Prince Charming.wav

Pre-gap length 0:00:00.72

Peak level 99.4 % Track quality 100.0 % Test CRC DA6AB8BB Copy CRC DA6AB8BB Track not present in AccurateRip database Copy OK

Track 6

Filename C:\EACrips\Dart For My Sweetheart.wav

Pre-gap length 0:00:00.04

Peak level 90.0 % Track quality 100.0 % Test CRC 5E9BB54F Copy CRC 5E9BB54F Track not present in AccurateRip database Copy OK

Track 7

Filename C:\EACrips\Kelly Brown.wav

Pre-gap length 0:00:00.80

Peak level 96.1 % Track quality 100.0 % Test CRC E9E36C49 Copy CRC E9E36C49 Track not present in AccurateRip database Copy OK

Track 8

Filename C:\EACrips\Mongrel... Meets His Maker.wav

Pre-gap length 0:00:00.88

Peak level 94.5 % Track quality 99.9 % Test CRC F2EBD29D Copy CRC F2EBD29D Track not present in AccurateRip database Copy OK

Track 9

Filename C:\EACrips\Hell Around The Corner.wav

Pre-gap length 0:00:00.44

Peak level 96.6 % Track quality 100.0 % Test CRC 982698D8 Copy CRC 982698D8 Track not present in AccurateRip database Copy OK

Track 10

Filename C:\EACrips\Colourful.wav

Pre-gap length 0:00:00.24

Peak level 97.7 % Track quality 100.0 % Test CRC 77B10884 Copy CRC 77B10884 Track not present in AccurateRip database Copy OK

Track 11

Filename C:\EACrips\It's All Over.wav

Pre-gap length 0:00:00.20

Peak level 97.1 % Track quality 100.0 % Test CRC A1E0705F Copy CRC A1E0705F Track not present in AccurateRip database Copy OK

Track 12

Filename C:\EACrips\Witness The Fitness.wav

Pre-gap length 0:00:00.16

Peak level 93.3 % Track quality 100.0 % Test CRC 99A392D5 Copy CRC 99A392D5 Track not present in AccurateRip database Copy OK

Track 13

Filename C:\EACrips\No Pun Intended.wav

Pre-gap length 0:00:00.48

Peak level 99.1 % Track quality 100.0 % Test CRC CA2357B7 Copy CRC CA2357B7 Track not present in AccurateRip database Copy OK

Track 14

Filename C:\EACrips\Totally Wired.wav

Pre-gap length 0:00:00.41

Peak level 99.4 % Track quality 100.0 % Test CRC 79E1D45E Copy CRC 79E1D45E Track not present in AccurateRip database Copy OK

Track 15

Filename C:\EACrips\May You Never.wav

Pre-gap length 0:00:01.22

Peak level 99.4 % Track quality 100.0 % Test CRC 65C97EDA Copy CRC 65C97EDA Track not present in AccurateRip database Copy OK

Track 16

Filename C:\EACrips\Ah Uh Mi Hed.wav

Pre-gap length 0:00:01.32

Peak level 99.9 % Track quality 100.0 % Test CRC 394DC915 Copy CRC 394DC915 Track not present in AccurateRip database Copy OK

Track 17

Filename C:\EACrips\Hammer Without A Master.wav

Pre-gap length 0:00:00.92

Peak level 99.4 % Track quality 100.0 % Test CRC 3E487AFB Copy CRC 3E487AFB Track not present in AccurateRip database Copy OK

Track 18

Filename C:\EACrips\You Look Great When I'm Fucked Up.wav

Pre-gap length 0:00:00.52

Peak level 98.4 % Track quality 100.0 % Test CRC 6C16D133 Copy CRC 6C16D133 Track not present in AccurateRip database Copy OK

Track 19

Filename C:\EACrips\Wild World.wav

Pre-gap length 0:00:01.48

Peak level 99.8 % Track quality 100.0 % Test CRC 0CA970F0 Copy CRC 0CA970F0 Track not present in AccurateRip database Copy OK

None of the tracks are present in the AccurateRip database

No errors occurred

End of status report


Трекер:  [ 08-Июл-2011 02:07 ]

  

Скачать .torrent

Размер .torrent файла 22 KB


Размер: 522 MB
Хэш (hash) релиза: 937fe1eea5c76b70c92da6f5032ab18e7ac5da77

Торренты, похожие на Молокососы Skins скачать торрент

Форум Название Автор Размер S L Добавлен
Саундтреки к фильмам и мультфильмам (lossless) ·· (Soundtrack) Молокососы / Skins 2 - 2008, FLAC (tracks+.cue), lossless Galfimbul 518266070494 MB 0 0 1292268777

22:32

13-Дек-10

Саундтреки к фильмам и мультфильмам (mp3) ·· (Soundtrack) Молокососы / Skins Vol. 2 - 2008, MP3 (tracks), 320 kbps AqvaGen 190499524182 MB 0 0 1292265279

21:34

13-Дек-10

Саундтреки к фильмам и мультфильмам (mp3) ·· (Soundtrack) Молокососы / Skins - 2007, MP3 (tracks), 320 kbps AqvaGen 189542421181 MB 0 0 1292265265

21:34

13-Дек-10

Еще никто не оставлял запись к записи скачать торрент Молокососы Skins . Будь первым!

!Обратная связь