Скачать через торрент музыку Константин: Повелитель тьмы Constantine бесплатно без регистрации torrent

Если у вас наблюдаются проблемы со скриншотами, переходом по ссылками, скачиванием торрентов - проблемы в блокировщике рекламы AdBlock. #хорошегоДня!


Статистика раздачи
Размер:  231 MB   |    Зарегистрирован:  6 лет 2 месяца   |    .torrent скачан:  51 раз   |   
Раздают:  1  
   
Загрузка...
 
Автор Сообщение

Galfimbul

avatar Galfimbul


Константин: Повелитель тьмы / Constantine

Жанр: Score || Композитор: Brian Tyler & Klaus Badelt || Год выпуска: 2005 || Страна: USA || Аудио кодек: FLAC || Тип рипа: tracks+.cue || Битрейт аудио: lossless
Продолжительность: 00:51:42 || Источник: what.cd

01 - Destiny (02:01)
02 - The Cross Over (02:42)
03 - Meet John Constantine (02:39)
04 - Confession (02:32)
05 - Deo et Patri (01:17)
06 - Counterweight (02:47)
07 - Into the Light (02:54)
08 - I Left Her Alone (01:41)
09 - Resurrection (02:04)
10 - Circle of Hell (05:38)
11 - Last Rites (01:55)
12 - Encountering a Twin (01:06)
13 - Flight to Ravenscar (00:53)
14 - Humanity (02:59)
15 - John (01:32)
16 - Someone Was Here (01:45)
17 - Hell Freeway (02:43)
18 - Ether Surfing (01:14)
19 - The Balance (02:27)
20 - Absentee Landlords (01:35)
21 - John's Solitude (01:25)
22 - Lucifer (01:57)
23 - Rooftop (01:18)
24 - Constantine End Titles (02:39)

 
Exact Audio Copy V0.99 prebeta 4 from 23. January 2008

EAC extraction logfile from 28. September 2010, 17:14

Brian Tyler and Klaus Badelt / Constantine

Used drive : TSSTcorpCDDVDW TS-H653N Adapter: 2 ID: 2

Read mode : SecureUtilize accurate stream : YesDefeat audio cache : YesMake use of C2 pointers : No

Read offset correction : 6Overread into Lead-In and Lead-Out : NoFill up missing offset samples with silence : YesDelete leading and trailing silent blocks : NoNull samples used in CRC calculations : YesUsed interface : Installed external ASPI interfaceGap handling : Appended to previous track

Used output format : User Defined EncoderSelected bitrate : 320 kBit/sQuality : HighAdd ID3 tag : NoCommand line compressor : C:\Program Files\Exact Audio Copy\FLAC\FLAC.EXEAdditional command line options : -V -8 -T "artist=%a" -T "title=%t" -T "album=%g" -T "date=%y" -T "tracknumber=%n" -T "genre=%m" %s

TOC of the extracted CD

Track | Start | Length | Start sector | End sector --------------------------------------------------------- 1 | 0:00.00 | 2:00.52 | 0 | 9051 2 | 2:00.52 | 2:42.08 | 9052 | 21209 3 | 4:42.60 | 2:39.15 | 21210 | 33149 4 | 7:22.00 | 2:32.37 | 33150 | 44586 5 | 9:54.37 | 1:16.50 | 44587 | 50336 6 | 11:11.12 | 2:47.18 | 50337 | 62879 7 | 13:58.30 | 2:53.65 | 62880 | 75919 8 | 16:52.20 | 1:40.55 | 75920 | 83474 9 | 18:33.00 | 2:04.32 | 83475 | 92806 10 | 20:37.32 | 5:38.10 | 92807 | 118166 11 | 26:15.42 | 1:55.25 | 118167 | 126816 12 | 28:10.67 | 1:06.00 | 126817 | 131766 13 | 29:16.67 | 0:52.50 | 131767 | 135716 14 | 30:09.42 | 2:58.45 | 135717 | 149111 15 | 33:08.12 | 1:31.53 | 149112 | 155989 16 | 34:39.65 | 1:44.70 | 155990 | 163859 17 | 36:24.60 | 2:43.00 | 163860 | 176084 18 | 39:07.60 | 1:13.57 | 176085 | 181616 19 | 40:21.42 | 2:26.55 | 181617 | 192621 20 | 42:48.22 | 1:35.08 | 192622 | 199754 21 | 44:23.30 | 1:25.12 | 199755 | 206141 22 | 45:48.42 | 1:56.53 | 206142 | 214894 23 | 47:45.20 | 1:18.32 | 214895 | 220776 24 | 49:03.52 | 2:39.18 | 220777 | 232719

Track 1

Filename 01 - Destiny.wav

Pre-gap length 0:00:02.00

Peak level 56.5 % Track quality 100.0 % Test CRC 6377C9E2 Copy CRC 6377C9E2 Accurately ripped (confidence 12) [7023F65B] Copy OK

Track 2

Filename 02 - The Cross Over.wav

Peak level 98.8 % Track quality 100.0 % Test CRC 71B5114D Copy CRC 71B5114D Accurately ripped (confidence 16) [E5AFB512] Copy OK

Track 3

Filename 03 - Meet John Constantine.wav

Peak level 98.8 % Track quality 100.0 % Test CRC 94E823AA Copy CRC 94E823AA Accurately ripped (confidence 16) [277DBD18] Copy OK

Track 4

Filename 04 - Confession.wav

Peak level 98.8 % Track quality 100.0 % Test CRC 86D6F573 Copy CRC 86D6F573 Accurately ripped (confidence 16) [5630E54A] Copy OK

Track 5

Filename 05 - Deo et Patri.wav

Pre-gap length 0:00:01.12

Peak level 43.4 % Track quality 100.0 % Test CRC 1E5E9C29 Copy CRC 1E5E9C29 Accurately ripped (confidence 16) [EF9F323F] Copy OK

Track 6

Filename 06 - Counterweight.wav

Pre-gap length 0:00:01.05

Peak level 98.8 % Track quality 100.0 % Test CRC 0D3CED74 Copy CRC 0D3CED74 Accurately ripped (confidence 16) [4D9060BF] Copy OK

Track 7

Filename 07 - Into the Light.wav

Peak level 98.8 % Track quality 100.0 % Test CRC CA6527CF Copy CRC CA6527CF Accurately ripped (confidence 16) [485C5933] Copy OK

Track 8

Filename 08 - I Left Her Alone.wav

Pre-gap length 0:00:01.05

Peak level 45.6 % Track quality 100.0 % Test CRC 72A6725F Copy CRC 72A6725F Accurately ripped (confidence 16) [D750D04A] Copy OK

Track 9

Filename 09 - Resurrection.wav

Pre-gap length 0:00:01.00

Peak level 98.8 % Track quality 100.0 % Test CRC 913C34E0 Copy CRC 913C34E0 Accurately ripped (confidence 16) [860AEE24] Copy OK

Track 10

Filename 10 - Circle of Hell.wav

Peak level 98.8 % Track quality 100.0 % Test CRC E185129E Copy CRC E185129E Accurately ripped (confidence 16) [F5F9E6C8] Copy OK

Track 11

Filename 11 - Last Rites.wav

Pre-gap length 0:00:01.42

Peak level 98.8 % Track quality 100.0 % Test CRC 093E0ECD Copy CRC 093E0ECD Accurately ripped (confidence 16) [75BDFAC7] Copy OK

Track 12

Filename 12 - Encountering a Twin.wav

Peak level 32.4 % Track quality 100.0 % Test CRC F164A575 Copy CRC F164A575 Accurately ripped (confidence 16) [83CEFA52] Copy OK

Track 13

Filename 13 - Flight to Ravenscar.wav

Pre-gap length 0:00:02.02

Peak level 98.8 % Track quality 100.0 % Test CRC 5E24F3C8 Copy CRC 5E24F3C8 Accurately ripped (confidence 16) [8025E999] Copy OK

Track 14

Filename 14 - Humanity.wav

Pre-gap length 0:00:01.37

Peak level 60.4 % Track quality 100.0 % Test CRC A18E6C6C Copy CRC A18E6C6C Accurately ripped (confidence 16) [28609228] Copy OK

Track 15

Filename 15 - John.wav

Pre-gap length 0:00:02.02

Peak level 55.0 % Track quality 100.0 % Test CRC 92B0FE53 Copy CRC 92B0FE53 Accurately ripped (confidence 16) [61AA8742] Copy OK

Track 16

Filename 16 - Someone Was Here.wav

Pre-gap length 0:00:02.20

Peak level 98.8 % Track quality 99.8 % Test CRC 507D3E70 Copy CRC 507D3E70 Accurately ripped (confidence 16) [452745A4] Copy OK

Track 17

Filename 17 - Hell Freeway.wav

Pre-gap length 0:00:01.08

Peak level 98.8 % Track quality 100.0 % Test CRC 4D0C094E Copy CRC 4D0C094E Accurately ripped (confidence 16) [F3EB161C] Copy OK

Track 18

Filename 18 - Ether Surfing.wav

Pre-gap length 0:00:01.40

Peak level 65.0 % Track quality 100.0 % Test CRC 9D39A846 Copy CRC 9D39A846 Accurately ripped (confidence 16) [D7D97A6E] Copy OK

Track 19

Filename 19 - The Balance.wav

Pre-gap length 0:00:01.32

Peak level 98.8 % Track quality 100.0 % Test CRC FEA419B9 Copy CRC FEA419B9 Accurately ripped (confidence 16) [69BA08EF] Copy OK

Track 20

Filename 20 - Absentee Landlords.wav

Pre-gap length 0:00:01.42

Peak level 98.8 % Track quality 100.0 % Test CRC E9446AF6 Copy CRC E9446AF6 Accurately ripped (confidence 16) [05B15BEE] Copy OK

Track 21

Filename 21 - John's Solitude.wav

Pre-gap length 0:00:01.38

Peak level 24.9 % Track quality 100.0 % Test CRC 67CB8B88 Copy CRC 67CB8B88 Accurately ripped (confidence 16) [279B2D57] Copy OK

Track 22

Filename 22 - Lucifer.wav

Pre-gap length 0:00:01.02

Peak level 98.8 % Track quality 100.0 % Test CRC 80247431 Copy CRC 80247431 Accurately ripped (confidence 16) [3CD657D4] Copy OK

Track 23

Filename 23 - Rooftop.wav

Pre-gap length 0:00:01.43

Peak level 98.8 % Track quality 100.0 % Test CRC EA15319A Copy CRC EA15319A Accurately ripped (confidence 16) [D1A1AA8E] Copy OK

Track 24

Filename 24 - Constantine End Titles.wav

Peak level 98.8 % Track quality 100.0 % Test CRC 4F8A1B1D Copy CRC 4F8A1B1D Accurately ripped (confidence 12) [DE12D814] Copy OK

All tracks accurately ripped

No errors occurred

End of status report
 
REM GENRE SoundtrackREM DATE 2005REM DISCID 5B0C1E18REM COMMENT "ExactAudioCopy v0.99pb4"PERFORMER "Brian Tyler and Klaus Badelt"TITLE "Constantine"FILE "01 - Destiny.wav" WAVE TRACK 01 AUDIO TITLE "Destiny" PERFORMER "Brian Tyler and Klaus Badelt" INDEX 01 00:00:00FILE "02 - The Cross Over.wav" WAVE TRACK 02 AUDIO TITLE "The Cross Over" PERFORMER "Brian Tyler and Klaus Badelt" INDEX 01 00:00:00FILE "03 - Meet John Constantine.wav" WAVE TRACK 03 AUDIO TITLE "Meet John Constantine" PERFORMER "Brian Tyler and Klaus Badelt" INDEX 01 00:00:00FILE "04 - Confession.wav" WAVE TRACK 04 AUDIO TITLE "Confession" PERFORMER "Brian Tyler and Klaus Badelt" INDEX 01 00:00:00 TRACK 05 AUDIO TITLE "Deo et Patri" PERFORMER "Brian Tyler and Klaus Badelt" INDEX 00 02:31:25FILE "05 - Deo et Patri.wav" WAVE INDEX 01 00:00:00 TRACK 06 AUDIO TITLE "Counterweight" PERFORMER "Brian Tyler and Klaus Badelt" INDEX 00 01:15:45FILE "06 - Counterweight.wav" WAVE INDEX 01 00:00:00FILE "07 - Into the Light.wav" WAVE TRACK 07 AUDIO TITLE "Into the Light" PERFORMER "Brian Tyler and Klaus Badelt" INDEX 01 00:00:00 TRACK 08 AUDIO TITLE "I Left Her Alone" PERFORMER "Brian Tyler and Klaus Badelt" INDEX 00 02:52:60FILE "08 - I Left Her Alone.wav" WAVE INDEX 01 00:00:00 TRACK 09 AUDIO TITLE "Resurrection" PERFORMER "Brian Tyler and Klaus Badelt" INDEX 00 01:39:55FILE "09 - Resurrection.wav" WAVE INDEX 01 00:00:00FILE "10 - Circle of Hell.wav" WAVE TRACK 10 AUDIO TITLE "Circle of Hell" PERFORMER "Brian Tyler and Klaus Badelt" INDEX 01 00:00:00 TRACK 11 AUDIO TITLE "Last Rites" PERFORMER "Brian Tyler and Klaus Badelt" INDEX 00 05:36:43FILE "11 - Last Rites.wav" WAVE INDEX 01 00:00:00FILE "12 - Encountering a Twin.wav" WAVE TRACK 12 AUDIO TITLE "Encountering a Twin" PERFORMER "Brian Tyler and Klaus Badelt" INDEX 01 00:00:00 TRACK 13 AUDIO TITLE "Flight to Ravenscar" PERFORMER "Brian Tyler and Klaus Badelt" INDEX 00 01:03:73FILE "13 - Flight to Ravenscar.wav" WAVE INDEX 01 00:00:00 TRACK 14 AUDIO TITLE "Humanity" PERFORMER "Brian Tyler and Klaus Badelt" INDEX 00 00:51:13FILE "14 - Humanity.wav" WAVE INDEX 01 00:00:00 TRACK 15 AUDIO TITLE "John" PERFORMER "Brian Tyler and Klaus Badelt" INDEX 00 02:56:43FILE "15 - John.wav" WAVE INDEX 01 00:00:00 TRACK 16 AUDIO TITLE "Someone Was Here" PERFORMER "Brian Tyler and Klaus Badelt" INDEX 00 01:29:33FILE "16 - Someone Was Here.wav" WAVE INDEX 01 00:00:00 TRACK 17 AUDIO TITLE "Hell Freeway" PERFORMER "Brian Tyler and Klaus Badelt" INDEX 00 01:43:62FILE "17 - Hell Freeway.wav" WAVE INDEX 01 00:00:00 TRACK 18 AUDIO TITLE "Ether Surfing" PERFORMER "Brian Tyler and Klaus Badelt" INDEX 00 02:41:35FILE "18 - Ether Surfing.wav" WAVE INDEX 01 00:00:00 TRACK 19 AUDIO TITLE "The Balance" PERFORMER "Brian Tyler and Klaus Badelt" INDEX 00 01:12:25FILE "19 - The Balance.wav" WAVE INDEX 01 00:00:00 TRACK 20 AUDIO TITLE "Absentee Landlords" PERFORMER "Brian Tyler and Klaus Badelt" INDEX 00 02:25:13FILE "20 - Absentee Landlords.wav" WAVE INDEX 01 00:00:00 TRACK 21 AUDIO TITLE "John's Solitude" PERFORMER "Brian Tyler and Klaus Badelt" INDEX 00 01:33:45FILE "21 - John's Solitude.wav" WAVE INDEX 01 00:00:00 TRACK 22 AUDIO TITLE "Lucifer" PERFORMER "Brian Tyler and Klaus Badelt" INDEX 00 01:24:10FILE "22 - Lucifer.wav" WAVE INDEX 01 00:00:00 TRACK 23 AUDIO TITLE "Rooftop" PERFORMER "Brian Tyler and Klaus Badelt" INDEX 00 01:55:10FILE "23 - Rooftop.wav" WAVE INDEX 01 00:00:00FILE "24 - Constantine End Titles.wav" WAVE TRACK 24 AUDIO TITLE "Constantine End Titles" PERFORMER "Brian Tyler and Klaus Badelt" INDEX 01 00:00:00



Трекер:  [ 08-Июл-2011 02:10 ]

  

Скачать .torrent

Размер .torrent файла 20 KB


Размер: 231 MB
Хэш (hash) релиза: 64d66099238d846b938811d397e1ac767f037e08

Еще никто не оставлял запись к записи скачать торрент Константин: Повелитель тьмы Constantine . Будь первым!

!Обратная связь