Скачать через торрент музыку Velvet Goldmine Бархатная золотая жила - 1998, FLAC бесплатно без регистрации torrent

Если у вас наблюдаются проблемы со скриншотами, переходом по ссылками, скачиванием торрентов - проблемы в блокировщике рекламы AdBlock. #хорошегоДня!


Статистика раздачи
Размер:  465 MB   |    Зарегистрирован:  6 лет 2 месяца   |    .torrent скачан:  41 раз   |   
Раздают:  1  
   
Загрузка...
 
Автор Сообщение

Galfimbul

avatar Galfimbul


(Soundtrack) Velvet Goldmine / Бархатная золотая жила

Жанр: Glam Rock
Год выпуска диска: 1998
Производитель диска: U.S.A.
Аудио кодек: FLAC
Тип рипа: tracks
Битрейт аудио: lossless
Трэклист:
01. Brian Eno - Needle In The Camel's Eye
02. Shudder To Think - Hot One
03. Placebo - 20th Century Boy
04. The Venus In Furs - 2HB*
05. Wylde Ratttz - T.V. Eye**
06. Shudder To Think - Ballad Of Maxwell Demon
07. Grant Lee Buffalo - The Whole Shebang
08. The Venus In Furs - Ladytron*
09. Pulp - We Are The Boys
10. Roxy Music - Virginia Plain
11. Teenage Fanclub & Donna Matthews - Personality Crisis
12. Lou Reed - Satellite Of Love
13. T-Rex - Diamond Meadows
14. Paul Kimble & Andy Mackay - Bitter's End
15. The Venus In Furs - Baby's On Fire***
16. The Venus In Furs - Bitter-Sweet*
17. Carter Burwell - Velvet Spacetime
18. The Venus In Furs - Tumbling Down***
19. Steve Harley - Make Me Smile (Come Up And See Me)

Доп. информация:


*vocals by thom yorke
**vocals by ewan mcgregor
***vocals by jonathan rhys meyers

EAC-Лог
Exact Audio Copy V0.99 prebeta 4 from 23. January 2008

Отчёт EAC об извлечении, выполненном 28. июня 2008, 17:50

Various / Velvet Goldmine

Дисковод: _NEC DVD_RW ND-2510A Adapter: 0 ID: 1

Режим чтения : Достоверность
Использование точного потока : Да
Отключение кэша аудио : Да
Использование указателей C2 : Нет

Коррекция смещения при чтении : 48
Способность читать области Lead-in и Lead-out : Нет
Заполнение пропущенных сэмплов тишиной : Да
Удаление блоков с тишиной в начале и конце : Нет
При вычислениях CRC использовались нулевые сэмплы : Да
Интерфейс : Встроенный Win32-интерфейс для Win NT/2000
Обработка зазоров : Не обнаружено, добавлено к предыдущему треку

Выходной формат : Пользовательский кодировщик
Выбранный битрейт : 768 kBit/s
Качество : Высокий
Добавление ID3-тэга : Нет
Утилита сжатия : C:\Program Files\Exact Audio Copy\FLAC\FLAC.EXE
Дополнительные параметры : -6 -V -T "ARTIST=%a" -T "TITLE=%t" -T "ALBUM=%g" -T "DATE=%y" -T "TRACKNUMBER=%n" -T "GENRE=%m" -T "COMMENT=%e" %s -o %d

TOC извлечённого CD

Трек | Старт | Длительность | Начальный сектор | Конечный сектор
---------------------------------------------------------------------
1 | 0:00.00 | 3:09.23 | 0 | 14197
2 | 3:09.23 | 3:04.57 | 14198 | 28054
3 | 6:14.05 | 3:42.15 | 28055 | 44719
4 | 9:56.20 | 5:39.65 | 44720 | 70209
5 | 15:36.10 | 5:24.23 | 70210 | 94532
6 | 21:00.33 | 4:47.40 | 94533 | 116097
7 | 25:47.73 | 4:11.60 | 116098 | 134982
8 | 29:59.58 | 4:26.35 | 134983 | 154967
9 | 34:26.18 | 3:13.65 | 154968 | 169507
10 | 37:40.08 | 3:00.00 | 169508 | 183007
11 | 40:40.08 | 3:49.57 | 183008 | 200239
12 | 44:29.65 | 3:41.50 | 200240 | 216864
13 | 48:11.40 | 2:00.00 | 216865 | 225864
14 | 50:11.40 | 2:13.18 | 225865 | 235857
15 | 52:24.58 | 3:19.52 | 235858 | 250834
16 | 55:44.35 | 4:55.03 | 250835 | 272962
17 | 60:39.38 | 4:10.02 | 272963 | 291714
18 | 64:49.40 | 3:28.35 | 291715 | 307349
19 | 68:18.00 | 4:01.15 | 307350 | 325439

Трек 1

Имя файла D:\Новая папка\Needle In The Camel's Eye.wav

Пиковый уровень 99.9 %
Качество трека 100.0 %
CRC копии D76FC184
Копирование... OK

Трек 2

Имя файла D:\Новая папка\Hot Ones.wav

Пиковый уровень 99.9 %
Качество трека 100.0 %
CRC копии 1CDF9642
Копирование... OK

Трек 3

Имя файла D:\Новая папка\20th Century Boy.wav

Пиковый уровень 99.9 %
Качество трека 100.0 %
CRC копии 3C2288AE
Копирование... OK

Трек 4

Имя файла D:\Новая папка\2HB.wav

Пиковый уровень 99.8 %
Качество трека 100.0 %
CRC копии 5A87026F
Копирование... OK

Трек 5

Имя файла D:\Новая папка\T.V. Eye.wav

Пиковый уровень 99.9 %
Качество трека 100.0 %
CRC копии DDC72A3B
Копирование... OK

Трек 6

Имя файла D:\Новая папка\Ballad Of Maxwell Demon.wav

Пиковый уровень 99.9 %
Качество трека 99.9 %
CRC копии 9FBEC7A2
Копирование... OK

Трек 7

Имя файла D:\Новая папка\The Whole Shebang.wav

Пиковый уровень 99.8 %
Качество трека 100.0 %
CRC копии 4A7CBC08
Копирование... OK

Трек 8

Имя файла D:\Новая папка\Ladytron.wav

Пиковый уровень 94.7 %
Качество трека 100.0 %
CRC копии EFA478B7
Копирование... OK

Трек 9

Имя файла D:\Новая папка\We Are The Boyz.wav

Пиковый уровень 99.9 %
Качество трека 100.0 %
CRC копии B4184AF0
Копирование... OK

Трек 10

Имя файла D:\Новая папка\Virginia Plain.wav

Пиковый уровень 99.9 %
Качество трека 99.9 %
CRC копии 4F72726B
Копирование... OK

Трек 11

Имя файла D:\Новая папка\Personality Crisis (with Donna Matthews).wav

Пиковый уровень 99.9 %
Качество трека 100.0 %
CRC копии ACB9A7BD
Копирование... OK

Трек 12

Имя файла D:\Новая папка\Satellite Of Love.wav

Пиковый уровень 99.8 %
Качество трека 100.0 %
CRC копии 08CEDC0A
Копирование... OK

Трек 13

Имя файла D:\Новая папка\Diamond Meadows.wav

Пиковый уровень 92.0 %
Качество трека 100.0 %
CRC копии 3E1C79A2
Копирование... OK

Трек 14

Имя файла D:\Новая папка\Bitter's End.wav

Пиковый уровень 98.9 %
Качество трека 100.0 %
CRC копии 379C14E2
Копирование... OK

Трек 15

Имя файла D:\Новая папка\Baby's On Fire.wav

Пиковый уровень 96.6 %
Качество трека 100.0 %
CRC копии A3F37A85
Копирование... OK

Трек 16

Имя файла D:\Новая папка\Bitter-Sweet.wav

Пиковый уровень 99.9 %
Качество трека 100.0 %
CRC копии 8F20587B
Копирование... OK

Трек 17

Имя файла D:\Новая папка\Velvet Spacetime.wav

Пиковый уровень 99.9 %
Качество трека 99.9 %
CRC копии F6E106B2
Копирование... OK

Трек 18

Имя файла D:\Новая папка\Tumbling Down.wav

Пиковый уровень 96.3 %
Качество трека 100.0 %
CRC копии 7D8EBF0D
Копирование... OK

Трек 19

Имя файла D:\Новая папка\Make Me Smile (Come Up And See Me).wav

Пиковый уровень 99.9 %
Качество трека 100.0 %
CRC копии 9DFA00F1
Копирование... OK

Ошибок не произошло

Конец отчёта


Трекер:  [ 08-Июл-2011 02:11 ]

  

Скачать .torrent

Размер .torrent файла 19 KB


Размер: 465 MB
Хэш (hash) релиза: 715c20be03803197204c18eb66eb11a87859d31e

Еще никто не оставлял запись к записи скачать торрент Velvet Goldmine Бархатная золотая жила - 1998, FLAC . Будь первым!

!Обратная связь