Скачать через торрент музыку Анатомия Грей бесплатно без регистрации torrent

Если у вас наблюдаются проблемы со скриншотами, переходом по ссылками, скачиванием торрентов - проблемы в блокировщике рекламы AdBlock. #хорошегоДня!


Статистика раздачи
Размер:  1.12 GB   |    Зарегистрирован:  6 лет 2 месяца   |    .torrent скачан:  53 раза   |   
Раздают:  1  
   
Загрузка...
 
Автор Сообщение

Galfimbul

avatar Galfimbul



Жанр: Soundtrack | Годы выпуска дисков: 2005 - 2007 | Производитель дисков: Hollywood Records
Аудио кодек: FLAC | Тип рипа: tracks+.cue | Битрейт аудио: lossless
Общая продолжительность: 02:56:51


01. The Postal Service - Such Great Heights [04:26]
02. Roisin Murphy - Ruby Blue [02:46]
03. Maria Taylor - Song Beneath The Song [03:58]
04. Tegan And Sara - Where Does The Good Go [03:37]
05. Mike Doughty - Looking At The World From The Bottom Of A Well [03:58]
06. Get Set Go - Wait [02:46]
07. The Eames Era - Could Be Anything [03:45]
08. Rilo Kiley - Portions For Foxes [04:44]
09. Joe Purdy - The City [04:44]
10. Medeski, Martin & Wood - End Of The World Party [05:10]
11. Ben Lee - Catch My Disease (Live) [04:15]
12. The Ditty Bops - There's A Girl [03:02]
13. The Radio - Whatever Gets You Through Today [04:11]
14. Inara George - Fools In Love [04:42]
15. PSAPP - Cosy In The Rocket [04:28]

01. The Fray - How to Save A Life [04:22]
02. MoonBabies - War On Sound [03:45]
03. Jim Noir - I Me You [02:39]
04. Ursula 1000 - Kaboom [03:43]
05. Anya Marina - Miss Halfway [04:33]
06. Jamie Lidell - Multiply [04:24]
07. KT Tunstall - Universe & U (Acoustic Extravaganza version) [04:33]
08. Metric - Monster Hospital [03:30]
09. Gomez - How We Operate [05:26]
10. Kate Havnevik - Grace [03:41]
11. The Chalets - Sexy Mistake [02:57]
12. Gran Bel Fisher - Bound By Love [03:34]
13. Get Set Go - I Hate Everyone [03:38]
14. Foy Vance - Homebird [03:44]
15. Snow Patrol - Chasing Cars (Live Acoustic version) [04:31]

01. Peter, Bjorn and John - Young Floks [04:38]
02. The Bird And The Bee - Again & Again [02:44]
03. The Jealous Girlfriends - Something In The Water [02:50]
04. Feist - Sealion [03:40]
05. Bill Ricchini - A Cold Wind Blows Through Your Door [03:41]
06. Grace Potter And The Nocturnals - Falling Or Flying [04:57]
07. Koop - Come To Me [02:49]
08. Jesus Jackson - Running On Sunshine [04:50]
09. Robert Randolph & The Family Band - Ain't Nothing Wrong With That [03:29]
10. Paolo Nutini - Million Faces [03:41]
11. Mat Kearney - Breathe In Breathe Out [03:43]
12. Gomez - Moon And Sun [04:35]
13. John Legend - Sun Comes Up [03:54]
14. Ingrid Michaelson - Keep Breathing [03:28]
15. Brandi Carlile - The Story [03:58]


 
Exact Audio Copy V0.99 prebeta 4 from 23. January 2008

EAC extraction logfile from 22. January 2009, 15:21

Various / Grey's Anatomy (OST)

Used drive : HL-DT-STDVDRAM GSA-T20L Adapter: 0 ID: 0

Read mode : SecureUtilize accurate stream : YesDefeat audio cache : YesMake use of C2 pointers : No

Read offset correction : 667Overread into Lead-In and Lead-Out : NoFill up missing offset samples with silence : YesDelete leading and trailing silent blocks : NoNull samples used in CRC calculations : YesUsed interface : Installed external ASPI interfaceGap handling : Appended to previous track

Used output format : User Defined EncoderSelected bitrate : 128 kBit/sQuality : HighAdd ID3 tag : NoCommand line compressor : C:\Program Files\Exact Audio Copy\Flac\flac.exeAdditional command line options : -V -8 -T "artist=%a" -T "title=%t" -T "album=%g" -T "date=%y" -T "tracknumber=%n" -T "genre=%m" %s

TOC of the extracted CD

Track | Start | Length | Start sector | End sector --------------------------------------------------------- 1 | 0:00.00 | 4:26.31 | 0 | 19980 2 | 4:26.31 | 2:46.00 | 19981 | 32430 3 | 7:12.31 | 3:58.72 | 32431 | 50352 4 | 11:11.28 | 3:37.65 | 50353 | 66692 5 | 14:49.18 | 3:58.69 | 66693 | 84611 6 | 18:48.12 | 2:46.06 | 84612 | 97067 7 | 21:34.18 | 3:45.28 | 97068 | 113970 8 | 25:19.46 | 4:44.66 | 113971 | 135336 9 | 30:04.37 | 4:44.37 | 135337 | 156673 10 | 34:48.74 | 5:10.06 | 156674 | 179929 11 | 39:59.05 | 4:15.56 | 179930 | 199110 12 | 44:14.61 | 3:02.35 | 199111 | 212795 13 | 47:17.21 | 4:11.39 | 212796 | 231659 14 | 51:28.60 | 4:42.58 | 231660 | 252867 15 | 56:11.43 | 4:28.17 | 252868 | 272984

Track 1

Filename Z:\home\fuck\Various Artists - Grey's Anatomy (OST) (2005)\01 - The Postal Service - Such Great Heights.wav

Pre-gap length 0:00:02.00

Peak level 98.8 % Track quality 100.0 % Test CRC 6B5AB979 Copy CRC 6B5AB979 Accurately ripped (confidence 31) [D2EA0DFB] Copy OK

Track 2

Filename Z:\home\fuck\Various Artists - Grey's Anatomy (OST) (2005)\02 - Roisin Murphy - Ruby Blue.wav

Pre-gap length 0:00:00.18

Peak level 98.8 % Track quality 100.0 % Test CRC 6A8A2525 Copy CRC 6A8A2525 Accurately ripped (confidence 29) [A895107C] Copy OK

Track 3

Filename Z:\home\fuck\Various Artists - Grey's Anatomy (OST) (2005)\03 - Maria Taylor - Song Beneath The Song.wav

Peak level 98.8 % Track quality 100.0 % Test CRC 743BD94F Copy CRC 743BD94F Accurately ripped (confidence 31) [45A82F67] Copy OK

Track 4

Filename Z:\home\fuck\Various Artists - Grey's Anatomy (OST) (2005)\04 - Tegan And Sara - Where Does The Good Go.wav

Peak level 95.4 % Track quality 100.0 % Test CRC 6FA9F042 Copy CRC 6FA9F042 Accurately ripped (confidence 30) [4AAF5930] Copy OK

Track 5

Filename Z:\home\fuck\Various Artists - Grey's Anatomy (OST) (2005)\05 - Mike Doughty - Looking At The World From The Bottom Of A Well.wav

Pre-gap length 0:00:00.73

Peak level 99.9 % Track quality 100.0 % Test CRC 3C94B3D0 Copy CRC 3C94B3D0 Accurately ripped (confidence 30) [7B64448E] Copy OK

Track 6

Filename Z:\home\fuck\Various Artists - Grey's Anatomy (OST) (2005)\06 - Get Set Go - Wait.wav

Pre-gap length 0:00:01.10

Peak level 99.9 % Track quality 100.0 % Test CRC 7F1DECCA Copy CRC 7F1DECCA Accurately ripped (confidence 29) [2AF91C0A] Copy OK

Track 7

Filename Z:\home\fuck\Various Artists - Grey's Anatomy (OST) (2005)\07 - The Eames Era - Could Be Anything.wav

Peak level 99.9 % Track quality 100.0 % Test CRC 0F3B4626 Copy CRC 0F3B4626 Accurately ripped (confidence 29) [58EA5644] Copy OK

Track 8

Filename Z:\home\fuck\Various Artists - Grey's Anatomy (OST) (2005)\08 - Rilo Kiley - Portions For Foxes.wav

Peak level 98.7 % Track quality 100.0 % Test CRC 9F8C9FB8 Copy CRC 9F8C9FB8 Accurately ripped (confidence 31) [17D63C58] Copy OK

Track 9

Filename Z:\home\fuck\Various Artists - Grey's Anatomy (OST) (2005)\09 - Joe Purdy - The City.wav

Peak level 99.9 % Track quality 100.0 % Test CRC 6811A0A5 Copy CRC 6811A0A5 Accurately ripped (confidence 29) [309B8C04] Copy OK

Track 10

Filename Z:\home\fuck\Various Artists - Grey's Anatomy (OST) (2005)\10 - Medeski, Martin & Wood - End Of The World Party.wav

Pre-gap length 0:00:00.28

Peak level 99.9 % Track quality 100.0 % Test CRC A3EC3D88 Copy CRC A3EC3D88 Accurately ripped (confidence 29) [7754BACA] Copy OK

Track 11

Filename Z:\home\fuck\Various Artists - Grey's Anatomy (OST) (2005)\11 - Ben Lee - Catch My Disease (Live).wav

Peak level 100.0 % Track quality 100.0 % Test CRC 7F11E92B Copy CRC 7F11E92B Accurately ripped (confidence 30) [0942CAA8] Copy OK

Track 12

Filename Z:\home\fuck\Various Artists - Grey's Anatomy (OST) (2005)\12 - The Ditty Bops - There's A Girl.wav

Pre-gap length 0:00:00.92

Peak level 99.9 % Track quality 100.0 % Test CRC 8A209A25 Copy CRC 8A209A25 Accurately ripped (confidence 30) [1627E735] Copy OK

Track 13

Filename Z:\home\fuck\Various Artists - Grey's Anatomy (OST) (2005)\13 - The Radio - Whatever Gets You Through Today.wav

Peak level 99.9 % Track quality 100.0 % Test CRC E145E593 Copy CRC E145E593 Accurately ripped (confidence 29) [402FD4D4] Copy OK

Track 14

Filename Z:\home\fuck\Various Artists - Grey's Anatomy (OST) (2005)\14 - Inara George - Fools In Love.wav

Peak level 99.9 % Track quality 100.0 % Test CRC 003C930B Copy CRC 003C930B Accurately ripped (confidence 29) [EE0455C8] Copy OK

Track 15

Filename Z:\home\fuck\Various Artists - Grey's Anatomy (OST) (2005)\15 - PSAPP - Cosy In The Rocket.wav

Pre-gap length 0:00:00.56

Peak level 89.1 % Track quality 100.0 % Test CRC 13C26C9B Copy CRC 13C26C9B Accurately ripped (confidence 29) [3FACAD93] Copy OK

All tracks accurately ripped

No errors occurred

End of status report
 
Exact Audio Copy V0.99 prebeta 3 from 28. July 2007

EAC extraction logfile from 22. January 2009, 7:07

Various / Grey's Anatomy Original Sound track Vol 2

Used drive : ATAPI DVD A DH16A3L Adapter: 3 ID: 0

Read mode : SecureUtilize accurate stream : YesDefeat audio cache : YesMake use of C2 pointers : No

Read offset correction : 6Overread into Lead-In and Lead-Out : NoFill up missing offset samples with silence : YesDelete leading and trailing silent blocks : NoNull samples used in CRC calculations : YesUsed interface : Native Win32 interface for Win NT & 2000Gap handling : Appended to previous track

Used output format : User Defined EncoderSelected bitrate : 128 kBit/sQuality : HighAdd ID3 tag : NoCommand line compressor : C:\Program Files\FLAC\flac.exeAdditional command line options : -V -8 -T "artist=%a" -T "title=%t" -T "album=%g" -T "date=%y" -T "tracknumber=%n" -T "genre=%m" %s

TOC of the extracted CD

Track | Start | Length | Start sector | End sector --------------------------------------------------------- 1 | 0:00.00 | 4:22.58 | 0 | 19707 2 | 4:22.58 | 3:45.47 | 19708 | 36629 3 | 8:08.30 | 2:39.44 | 36630 | 48598 4 | 10:47.74 | 3:43.41 | 48599 | 65364 5 | 14:31.40 | 4:33.08 | 65365 | 85847 6 | 19:04.48 | 4:24.29 | 85848 | 105676 7 | 23:29.02 | 4:33.59 | 105677 | 126210 8 | 28:02.61 | 3:30.55 | 126211 | 142015 9 | 31:33.41 | 5:26.38 | 142016 | 166503 10 | 37:00.04 | 3:41.56 | 166504 | 183134 11 | 40:41.60 | 2:57.07 | 183135 | 196416 12 | 43:38.67 | 3:34.51 | 196417 | 212517 13 | 47:13.43 | 3:38.47 | 212518 | 228914 14 | 50:52.15 | 3:44.38 | 228915 | 245752 15 | 54:36.53 | 4:31.03 | 245753 | 266080

Track 1

Filename C:\Users\Public\Downloads\Grey's Anatomy-vol 2\01-How to Save A Life.wav

Pre-gap length 0:00:02.00

Peak level 100.0 % Track quality 100.0 % Test CRC 5962A6A7 Copy CRC 5962A6A7 Track not present in AccurateRip database Copy OK

Track 2

Filename C:\Users\Public\Downloads\Grey's Anatomy-vol 2\02-War On Sound.wav

Peak level 99.1 % Track quality 100.0 % Test CRC 2DBBF0EB Copy CRC 2DBBF0EB Track not present in AccurateRip database Copy OK

Track 3

Filename C:\Users\Public\Downloads\Grey's Anatomy-vol 2\03-I Me You.wav

Peak level 99.8 % Track quality 100.0 % Test CRC EC141840 Copy CRC EC141840 Track not present in AccurateRip database Copy OK

Track 4

Filename C:\Users\Public\Downloads\Grey's Anatomy-vol 2\04-Kaboom.wav

Peak level 100.0 % Track quality 100.0 % Test CRC 242996EA Copy CRC 242996EA Track not present in AccurateRip database Copy OK

Track 5

Filename C:\Users\Public\Downloads\Grey's Anatomy-vol 2\05-Miss Halfway.wav

Peak level 99.8 % Track quality 100.0 % Test CRC 88DD7C13 Copy CRC 88DD7C13 Track not present in AccurateRip database Copy OK

Track 6

Filename C:\Users\Public\Downloads\Grey's Anatomy-vol 2\06-Multiply.wav

Peak level 99.9 % Track quality 100.0 % Test CRC FC98210C Copy CRC FC98210C Track not present in AccurateRip database Copy OK

Track 7

Filename C:\Users\Public\Downloads\Grey's Anatomy-vol 2\07-Universe & U (Acoustic Extravaganza version).wav

Peak level 100.0 % Track quality 100.0 % Test CRC 957CCE96 Copy CRC 957CCE96 Track not present in AccurateRip database Copy OK

Track 8

Filename C:\Users\Public\Downloads\Grey's Anatomy-vol 2\08-Monster Hospital.wav

Peak level 100.0 % Track quality 100.0 % Test CRC B2D7B76F Copy CRC B2D7B76F Track not present in AccurateRip database Copy OK

Track 9

Filename C:\Users\Public\Downloads\Grey's Anatomy-vol 2\09-How We Operate.wav

Peak level 100.0 % Track quality 100.0 % Test CRC D73309FF Copy CRC D73309FF Track not present in AccurateRip database Copy OK

Track 10

Filename C:\Users\Public\Downloads\Grey's Anatomy-vol 2\10-Grace.wav

Pre-gap length 0:00:00.24

Peak level 97.5 % Track quality 100.0 % Test CRC FCA67FEA Copy CRC FCA67FEA Track not present in AccurateRip database Copy OK

Track 11

Filename C:\Users\Public\Downloads\Grey's Anatomy-vol 2\11-Sexy Mistake.wav

Peak level 100.0 % Track quality 100.0 % Test CRC 7BF63279 Copy CRC 7BF63279 Track not present in AccurateRip database Copy OK

Track 12

Filename C:\Users\Public\Downloads\Grey's Anatomy-vol 2\12-Bound By Love.wav

Pre-gap length 0:00:01.65

Peak level 100.0 % Track quality 100.0 % Test CRC 7D7DA332 Copy CRC 7D7DA332 Track not present in AccurateRip database Copy OK

Track 13

Filename C:\Users\Public\Downloads\Grey's Anatomy-vol 2\13-I Hate Everyone.wav

Pre-gap length 0:00:00.09

Peak level 99.8 % Track quality 100.0 % Test CRC 52F7ADA9 Copy CRC 52F7ADA9 Track not present in AccurateRip database Copy OK

Track 14

Filename C:\Users\Public\Downloads\Grey's Anatomy-vol 2\14-Homebird.wav

Pre-gap length 0:00:02.61

Peak level 98.9 % Track quality 100.0 % Test CRC 9487FA67 Copy CRC 9487FA67 Track not present in AccurateRip database Copy OK

Track 15

Filename C:\Users\Public\Downloads\Grey's Anatomy-vol 2\15-Chasing Cars (Live Acoustic version).wav

Peak level 79.2 % Track quality 100.0 % Test CRC 5C3CF600 Copy CRC 5C3CF600 Track not present in AccurateRip database Copy OK

None of the tracks are present in the AccurateRip database

No errors occurred

End of status report
 
Exact Audio Copy V0.99 prebeta 3 from 28. July 2007

EAC extraction logfile from 23. January 2009, 19:39

Various / Grey's Anatomy 3

Used drive : ATAPI DVD A DH16A3L Adapter: 3 ID: 0

Read mode : SecureUtilize accurate stream : YesDefeat audio cache : YesMake use of C2 pointers : No

Read offset correction : 6Overread into Lead-In and Lead-Out : NoFill up missing offset samples with silence : YesDelete leading and trailing silent blocks : NoNull samples used in CRC calculations : YesUsed interface : Native Win32 interface for Win NT & 2000Gap handling : Appended to previous track

Used output format : User Defined EncoderSelected bitrate : 128 kBit/sQuality : HighAdd ID3 tag : NoCommand line compressor : C:\Program Files\FLAC\flac.exeAdditional command line options : -V -8 -T "artist=%a" -T "title=%t" -T "album=%g" -T "date=%y" -T "tracknumber=%n" -T "genre=%m" %s

TOC of the extracted CD

Track | Start | Length | Start sector | End sector --------------------------------------------------------- 1 | 0:00.00 | 4:38.72 | 0 | 20921 2 | 4:38.72 | 2:44.31 | 20922 | 33252 3 | 7:23.28 | 2:50.10 | 33253 | 46012 4 | 10:13.38 | 3:40.46 | 46013 | 62558 5 | 13:54.09 | 3:41.54 | 62559 | 79187 6 | 17:35.63 | 4:57.03 | 79188 | 101465 7 | 22:32.66 | 2:49.54 | 101466 | 114194 8 | 25:22.45 | 4:50.67 | 114195 | 136011 9 | 30:13.37 | 3:29.10 | 136012 | 151696 10 | 33:42.47 | 3:41.34 | 151697 | 168305 11 | 37:24.06 | 3:43.11 | 168306 | 185041 12 | 41:07.17 | 4:35.46 | 185042 | 205712 13 | 45:42.63 | 3:54.67 | 205713 | 223329 14 | 49:37.55 | 3:28.06 | 223330 | 238935 15 | 53:05.61 | 3:58.17 | 238936 | 256802

Track 1

Filename C:\Users\Public\Downloads\Grey's Anatomy-vol 3\01-Young Floks.wav

Pre-gap length 0:00:02.00

Peak level 95.4 % Track quality 100.0 % Test CRC 333DBD3D Copy CRC 333DBD3D Accurately ripped (confidence 4) [D608D2FA] Copy OK

Track 2

Filename C:\Users\Public\Downloads\Grey's Anatomy-vol 3\02-Again & Again.wav

Peak level 95.4 % Track quality 100.0 % Test CRC 0646EB6E Copy CRC 0646EB6E Accurately ripped (confidence 4) [2C7EAEF3] Copy OK

Track 3

Filename C:\Users\Public\Downloads\Grey's Anatomy-vol 3\03-Something In The Water.wav

Peak level 95.4 % Track quality 100.0 % Test CRC 326E3A69 Copy CRC 326E3A69 Accurately ripped (confidence 3) [20C80CC3] Copy OK

Track 4

Filename C:\Users\Public\Downloads\Grey's Anatomy-vol 3\04-Sealion.wav

Peak level 90.8 % Track quality 100.0 % Test CRC E013F841 Copy CRC E013F841 Accurately ripped (confidence 3) [91518B44] Copy OK

Track 5

Filename C:\Users\Public\Downloads\Grey's Anatomy-vol 3\05-A Cold Wind Blows Through Your Door.wav

Peak level 71.5 % Track quality 100.0 % Test CRC 8A62A10A Copy CRC 8A62A10A Accurately ripped (confidence 3) [78B2F5DB] Copy OK

Track 6

Filename C:\Users\Public\Downloads\Grey's Anatomy-vol 3\06-Falling Or Flying.wav

Peak level 90.8 % Track quality 100.0 % Test CRC 2FEF5379 Copy CRC 2FEF5379 Accurately ripped (confidence 3) [570266CC] Copy OK

Track 7

Filename C:\Users\Public\Downloads\Grey's Anatomy-vol 3\07-Come To Me.wav

Peak level 80.5 % Track quality 100.0 % Test CRC BEDA5C5E Copy CRC BEDA5C5E Accurately ripped (confidence 3) [10C0495A] Copy OK

Track 8

Filename C:\Users\Public\Downloads\Grey's Anatomy-vol 3\08-Running On Sunshine.wav

Peak level 90.1 % Track quality 99.9 % Test CRC 3C27F5E8 Copy CRC 3C27F5E8 Accurately ripped (confidence 3) [A9912491] Copy OK

Track 9

Filename C:\Users\Public\Downloads\Grey's Anatomy-vol 3\09-Ain't Nothing Wrong With That.wav

Peak level 95.4 % Track quality 100.0 % Test CRC 16C752EC Copy CRC 16C752EC Accurately ripped (confidence 3) [8CAE952D] Copy OK

Track 10

Filename C:\Users\Public\Downloads\Grey's Anatomy-vol 3\10-Million Faces.wav

Peak level 95.4 % Track quality 100.0 % Test CRC 345FA35B Copy CRC 345FA35B Accurately ripped (confidence 3) [F81C5B47] Copy OK

Track 11

Filename C:\Users\Public\Downloads\Grey's Anatomy-vol 3\11-Breathe In Breathe Out.wav

Peak level 90.1 % Track quality 99.9 % Test CRC 1B67B496 Copy CRC 1B67B496 Accurately ripped (confidence 2) [81355E0C] Copy OK

Track 12

Filename C:\Users\Public\Downloads\Grey's Anatomy-vol 3\12-Moon And Sun.wav

Peak level 90.1 % Track quality 99.9 % Test CRC B48136AC Copy CRC B48136AC Accurately ripped (confidence 2) [93787D16] Copy OK

Track 13

Filename C:\Users\Public\Downloads\Grey's Anatomy-vol 3\13-Sun Comes Up.wav

Peak level 90.1 % Track quality 100.0 % Test CRC 4BC31A40 Copy CRC 4BC31A40 Accurately ripped (confidence 2) [021141E1] Copy OK

Track 14

Filename C:\Users\Public\Downloads\Grey's Anatomy-vol 3\14-Keep Breathing.wav

Peak level 94.3 % Track quality 100.0 % Test CRC 1515BA08 Copy CRC 1515BA08 Accurately ripped (confidence 2) [DB114B5B] Copy OK

Track 15

Filename C:\Users\Public\Downloads\Grey's Anatomy-vol 3\15-The Story.wav

Peak level 92.2 % Track quality 100.0 % Test CRC 7266AC40 Copy CRC 7266AC40 Accurately ripped (confidence 2) [594C2852] Copy OK

All tracks accurately ripped

No errors occurred

End of status report



Трекер:  [ 08-Июл-2011 02:11 ]

  

Скачать .torrent

Размер .torrent файла 29 KB


Размер: 1.12 GB
Хэш (hash) релиза: effc171ef3a7963d81d209353b02b18b3621a187

Торренты, похожие на Анатомия Грей скачать торрент

Форум Название Автор Размер S L Добавлен
Саундтреки к фильмам и мультфильмам (mp3) ·· (Soundtrack) Анатомия Грей (Анатомия страсти) / Grey's Anatomy (Volume 1-3) (3CD) (VA) - 2005-2007, MP3 (tracks), 320 kbps Galfimbul 424656677405 MB 0 0 1292265301

21:35

13-Дек-10

Саундтреки к фильмам и мультфильмам (mp3) ·· (OST) Grey's Anatomy / Анатомия Грей - 2007, MP3, 320 kbps (All Music) Galfimbul 301819981288 MB 0 0 1292266248

21:50

13-Дек-10

Еще никто не оставлял запись к записи скачать торрент Анатомия Грей . Будь первым!

!Обратная связь