Скачать через торрент музыку Streets Of Fire Улицы в огне - 1990, FLAC бесплатно без регистрации torrent

Если у вас наблюдаются проблемы со скриншотами, переходом по ссылками, скачиванием торрентов - проблемы в блокировщике рекламы AdBlock. #хорошегоДня!


Статистика раздачи
Размер:  267 MB   |    Зарегистрирован:  6 лет 2 месяца   |    .torrent скачан:  52 раза   |   
Раздают:  1  
   
Загрузка...
 
Автор Сообщение

Galfimbul

avatar Galfimbul


Streets of Fire - A Rock & Roll Fable / Улицы в огне



Жанр: Soundtrack
Год выпуска диска: 1990
Производитель диска:MCA Records. Германия
Аудио кодек: FLAC
Тип рипа: tracks+.cue
Битрейт аудио: lossless
Продолжительность: 41:43
Трэклист:
1. Fire Inc. - "Nowhere Fast" 6:02
2. Marilyn Martin - "Sorcerer" 5:06
3. The Fixx - "Deeper and Deeper" 3:45
4. Greg Phillinganes - "Countdown to Love" 3:00
5. The Blasters - "One Bad Stud" 2:28
6. Fire Inc. - "Tonight Is What It Means To Be Young" 6:58
7. Maria McKee - "Never Be You" 4:06
8. Dan Hartman - "I Can Dream About You" 4:07
9. Ry Cooder - "Hold That Snake" 2:36
10. The Blasters - Blue Shadows 3:17
Exact Audio Copy V0.99 prebeta 4 from 23. January 2008

EAC extraction logfile from 13. September 2008, 22:41

Various / Streets of Fire - A Rock & Roll Fable

Used drive : LITE-ON DVDRW SH-16A7S Adapter: 0 ID: 0

Read mode : Secure
Utilize accurate stream : Yes
Defeat audio cache : Yes
Make use of C2 pointers : No

Read offset correction : 6
Overread into Lead-In and Lead-Out : No
Fill up missing offset samples with silence : Yes
Delete leading and trailing silent blocks : No
Null samples used in CRC calculations : Yes
Used interface : Native Win32 interface for Win NT & 2000
Gap handling : Appended to previous track

Used output format : User Defined Encoder
Selected bitrate : 320 kBit/s
Quality : High
Add ID3 tag : No
Command line compressor : C:\Program Files\Exact Audio Copy\FLAC\FLAC.EXE
Additional command line options : -V -8 -T "artist=%a" -T "title=%t" -T "album=%g" -T "date=%y" -T "tracknumber=%n" -T "genre=%m" %s

TOC of the extracted CD

Track | Start | Length | Start sector | End sector
---------------------------------------------------------
1 | 0:00.00 | 6:03.32 | 0 | 27256
2 | 6:03.32 | 5:10.73 | 27257 | 50579
3 | 11:14.30 | 3:48.42 | 50580 | 67721
4 | 15:02.72 | 2:59.13 | 67722 | 81159
5 | 18:02.10 | 2:30.17 | 81160 | 92426
6 | 20:32.27 | 6:56.15 | 92427 | 123641
7 | 27:28.42 | 4:06.63 | 123642 | 142154
8 | 31:35.30 | 4:12.27 | 142155 | 161081
9 | 35:47.57 | 2:40.05 | 161082 | 173086
10 | 38:27.62 | 3:15.40 | 173087 | 187751

Track 1

Filename C:\Users\Swade\Documents\Streets of Fire - A Rock & Roll Fable - 1984\01 - Fire Inc. - Nowhere Fast.wav

Pre-gap length 0:00:02.00

Peak level 71.9 %
Track quality 100.0 %
Test CRC 6C40719C
Copy CRC 6C40719C
Accurately ripped (confidence 1) [7E7C5DD5]
Copy OK

Track 2

Filename C:\Users\Swade\Documents\Streets of Fire - A Rock & Roll Fable - 1984\02 - Marilyn Martin - Sorcerer.wav

Peak level 86.7 %
Track quality 100.0 %
Test CRC 31E0AA18
Copy CRC 31E0AA18
Accurately ripped (confidence 1) [210DFA44]
Copy OK

Track 3

Filename C:\Users\Swade\Documents\Streets of Fire - A Rock & Roll Fable - 1984\03 - The Fixx - Deeper And Deeper.wav

Pre-gap length 0:00:03.60

Peak level 55.0 %
Track quality 100.0 %
Test CRC BF8FE081
Copy CRC BF8FE081
Accurately ripped (confidence 1) [65975BE0]
Copy OK

Track 4

Filename C:\Users\Swade\Documents\Streets of Fire - A Rock & Roll Fable - 1984\04 - Greg Phillinganes - Countdown To Love.wav

Pre-gap length 0:00:03.53

Peak level 84.6 %
Track quality 100.0 %
Test CRC B1446610
Copy CRC B1446610
Accurately ripped (confidence 1) [7A52F0D1]
Copy OK

Track 5

Filename C:\Users\Swade\Documents\Streets of Fire - A Rock & Roll Fable - 1984\05 - The Blasters - One Bad Stud.wav

Pre-gap length 0:00:03.40

Peak level 75.4 %
Track quality 100.0 %
Test CRC 29FFBAF1
Copy CRC 29FFBAF1
Accurately ripped (confidence 1) [8C94F8EA]
Copy OK

Track 6

Filename C:\Users\Swade\Documents\Streets of Fire - A Rock & Roll Fable - 1984\06 - Fire Inc. - Tonight Is What It Means To Be Young.wav

Pre-gap length 0:00:02.69

Peak level 72.8 %
Track quality 100.0 %
Test CRC EC73F2C6
Copy CRC EC73F2C6
Accurately ripped (confidence 1) [EF94E106]
Copy OK

Track 7

Filename C:\Users\Swade\Documents\Streets of Fire - A Rock & Roll Fable - 1984\07 - Maria McKee - Never Be You.wav

Pre-gap length 0:00:01.73

Peak level 67.8 %
Track quality 100.0 %
Test CRC CBFEE97E
Copy CRC CBFEE97E
Accurately ripped (confidence 1) [4EB6402A]
Copy OK

Track 8

Filename C:\Users\Swade\Documents\Streets of Fire - A Rock & Roll Fable - 1984\08 - Dan Hartman - I Can Dream About You.wav

Pre-gap length 0:00:02.80

Peak level 83.3 %
Track quality 99.9 %
Test CRC 14F3CEA7
Copy CRC 14F3CEA7
Accurately ripped (confidence 1) [FCB9312F]
Copy OK

Track 9

Filename C:\Users\Swade\Documents\Streets of Fire - A Rock & Roll Fable - 1984\09 - Ry Cooder - Hold That Snake.wav

Pre-gap length 0:00:03.09

Peak level 87.6 %
Track quality 99.9 %
Test CRC EEEAD3AF
Copy CRC EEEAD3AF
Accurately ripped (confidence 1) [2EDB5E23]
Copy OK

Track 10

Filename C:\Users\Swade\Documents\Streets of Fire - A Rock & Roll Fable - 1984\10 - The Blasters - Blue Shadows.wav

Pre-gap length 0:00:03.09

Peak level 71.7 %
Track quality 100.0 %
Test CRC F1AAC832
Copy CRC F1AAC832
Accurately ripped (confidence 1) [A3B5D9F0]
Copy OK

All tracks accurately ripped

No errors occurred

End of status report


Трекер:  [ 08-Июл-2011 02:11 ]

  

Скачать .torrent

Размер .torrent файла 12 KB


Размер: 267 MB
Хэш (hash) релиза: d9e5d4b301e09595d75561bf4820d3ae336aa04b

Еще никто не оставлял запись к записи скачать торрент Streets Of Fire Улицы в огне - 1990, FLAC . Будь первым!

!Обратная связь