Скачать через торрент музыку High School Musical Классный мюзикл - 2006, FLAC бесплатно без регистрации torrent

Если у вас наблюдаются проблемы со скриншотами, переходом по ссылками, скачиванием торрентов - проблемы в блокировщике рекламы AdBlock. #хорошегоДня!


Статистика раздачи
Размер:  263 MB   |    Зарегистрирован:  6 лет 2 месяца   |    .torrent скачан:  36 раз   |   
Раздают:  1  
   
Загрузка...
 
Автор Сообщение

Galfimbul

avatar Galfimbul


High School Musical / Классный мюзикл

Жанр: Soundtrack
Год выпуска диска: 2006
Производитель диска: United States / США (Walt Disney)
Аудио кодек: FLAC
Тип рипа: image+.cue
Битрейт аудио: lossless
Продолжительность: 00:38:07

Трэклист:
1. High School Musical 1 / Start Of Something New (3:16)
2. Get'cha Head In The Game (2:27)
3. What I've Been Looking For (2:03)
4. What I've Been Looking For (Reprise) (1:19)
5. Stick To The Status Quo (4:28)
6. When There Was Me And You (3:00)
7. Bop To The Top (1:47)
8. Breaking Free (3:27)
9. We're All In This Together (3:51)
10. I Can't Take My Eyes Off Of You (2:51)
11. B5 / Get'cha Head In The Game (2:45)
12. Start Of Something New [Karaoke Instrumental] (3:20)
13. Breaking Free [Karaoke Instrumental] (3:26)
Exact Audio Copy V0.99 prebeta 5 from 4. May 2009

Отчёт EAC об извлечении, выполненном 7. октября 2009, 20:17

High School Musical 1 / High School Musical 1

Дисковод: _NEC DVD_RW ND-3540A Adapter: 0 ID: 0

Режим чтения : Достоверность
Использование точного потока : Да
Отключение кэша аудио : Да
Использование указателей C2 : Нет

Коррекция смещения при чтении : 48
Способность читать области Lead-in и Lead-out : Нет
Заполнение пропущенных сэмплов тишиной : Да
Удаление блоков с тишиной в начале и конце : Нет
При вычислениях CRC использовались нулевые сэмплы : Да
Интерфейс : Установленный внешний ASPI-интерфейс

Выходной формат : Пользовательский кодировщик
Выбранный битрейт : 768 kBit/s
Качество : Высокий
Добавление ID3-тэга : Нет
Утилита сжатия : C:\Program Files (x86)\Exact Audio Copy\FLAC\FLAC.EXE
Дополнительные параметры : -6 -V -T "ARTIST=%a" -T "TITLE=%t" -T "ALBUM=%g" -T "DATE=%y" -T "TRACKNUMBER=%n" -T "GENRE=%m" -T "COMMENT=%e" %s -o %d

TOC извлечённого CD

Трек | Старт | Длительность | Начальный сектор | Конечный сектор
---------------------------------------------------------------------
1 | 0:00.00 | 3:16.59 | 0 | 14758
2 | 3:16.59 | 2:27.49 | 14759 | 25832
3 | 5:44.33 | 2:03.62 | 25833 | 35119
4 | 7:48.20 | 1:19.68 | 35120 | 41112
5 | 9:08.13 | 4:28.31 | 41113 | 61243
6 | 13:36.44 | 3:00.33 | 61244 | 74776
7 | 16:37.02 | 1:47.62 | 74777 | 82863
8 | 18:24.64 | 3:27.15 | 82864 | 98403
9 | 21:52.04 | 3:51.32 | 98404 | 115760
10 | 25:43.36 | 2:51.24 | 115761 | 128609
11 | 28:34.60 | 2:45.22 | 128610 | 141006
12 | 31:20.07 | 3:20.15 | 141007 | 156021
13 | 34:40.22 | 3:26.57 | 156022 | 171528

Характеристики диапазона извлечения и сообщения об ошибках

Выбранный диапазон

Имя файла F:\Releases\High School Musical 1 - High School Musical 1.wav

Пиковый уровень 100.0 %
Качество диапазона 100.0 %
CRC копии CBAAA10B
Копирование... OK

Ошибок не произошло

AccurateRip: сводка

Трек 1 нет в базе данных
Трек 2 нет в базе данных
Трек 3 нет в базе данных
Трек 4 нет в базе данных
Трек 5 нет в базе данных
Трек 6 нет в базе данных
Трек 7 нет в базе данных
Трек 8 нет в базе данных
Трек 9 нет в базе данных
Трек 10 нет в базе данных
Трек 11 нет в базе данных
Трек 12 нет в базе данных
Трек 13 нет в базе данных

Ни одного трека нет в базе AccurateRip

Конец отчёта


Трекер:  [ 08-Июл-2011 02:11 ]

  

Скачать .torrent

Размер .torrent файла 11 KB


Размер: 263 MB
Хэш (hash) релиза: d7dc7c52ac7d25d43be11e6c3e87eb315bf8e387

Торренты, похожие на High School Musical Классный мюзикл - 2006, FLAC скачать торрент

Форум Название Автор Размер S L Добавлен
Саундтреки к фильмам и мультфильмам (lossless) ·· (Soundtrack) Классный мюзикл / High School Musical (2CD Special Edition) (VA) - 2006, FLAC (tracks+.cue), lossless Galfimbul 390153882372 MB 0 0 1292268954

22:35

13-Дек-10

Еще никто не оставлял запись к записи скачать торрент High School Musical Классный мюзикл - 2006, FLAC . Будь первым!

!Обратная связь