Скачать через торрент музыку John Williams - Star Wars Episode I: The Phantom Menace - 2000 бесплатно без регистрации torrent

Если у вас наблюдаются проблемы со скриншотами, переходом по ссылками, скачиванием торрентов - проблемы в блокировщике рекламы AdBlock. #хорошегоДня!


Статистика раздачи
Размер:  566 MB   |    Зарегистрирован:  6 лет 5 месяцев   |    .torrent скачан:  46 раз   |   
Раздают:  1  
   
Загрузка...
 
Автор Сообщение

Galfimbul

avatar Galfimbul


John Williams - Star Wars Episode I: The Phantom Menace




Жанр: Score
Год выпуска диска: 2000
Производитель диска: USA
Аудио кодек: FLAC
Тип рипа: tracks+.cue
Битрейт аудио: lossless
Продолжительность: 57:27 + 1:07:04
1. Fox Fanfare
2. Star Wars Main Title
3. Boarding The Federation Battleship
4. Death Warrant For Qui-Gon And Obi-Wan
5. Fighting The Destroyer Droids
6. Queen Amidala Warns The Federation
7. The Droid Invasion
8. Swimming To Otoh Gunga
9. Inside The Bubble City
10. Attack Of The Giant Fish
11. Darth Sidious
12. The Giant Squid And The Attack On Theed
13. Qui-Gon And Obi-Wan Rescue The Queen
14. Fighting The Guards
15. Escape From Naboo
16. Enter Darth Maul
17. The Arrival Of Tatooine
18. Street Band Of Mos Espa
19. Padme Meets Anakin
20. Desert Winds (Bonus Track Not Included In Motion Picture)
21. Jar Jar's Run-In With Sebulba
22. Anakin's Home And The Introduction To Threepio
23. Darth Sidious And Darth Maul
24. Talk Of Podracing
25. Watto's Deal/Shmi And Qui-Gon Talk
26. Anakin, Podracer Mechanic
27. The Racer Roars To Life/Anakin's Midi-Chlorian Count
28. Darth Maul And The Sith Spacecraft
29. Mos Espa Arena Band
30. Watto's Roll Of The Die
31. The Flag Parade
32. Sebulba's Dirty Hand/Qui-Gon's Pep Talk
33. Anakin Defeats Sebulba
34. Hail To The Winner, Anakin Skywalker
35. The Street Singer
1. Anakin Is Free
2. Qui-Gon And Darth Maul Meet
3. Anakin And Group To Coruscant
4. The Queen And Palpatine
5. High Council Meeting
6. The Senate
7. Anakin's Test
8. Qui-Gon's Mission/Obi-Wan's Warning
9. Nute And Rune Confer With Darth Sidious
10. The Queen And Her Group Land On Naboo
11. Jar Jar Leads Group To The Gungans
12. War Plans
13. Darth Sidious Receives News Of The Gungan Army
14. The Gungans March
15. The Queen And Her Group Sneak Back To The Palace
16. The Battle Begins
17. The Republic Pilots Take Off Into Space
18. Activate The Droids
19. The Gungans Fight Back
20. The Duel Begins
21. Anakin Takes Off In Spaceship
22. The Duel Continues
23. The Battle Rages On
24. Qui-Gon, Obi-Wan And Darth Maul Continue Battle
25. Qui-Gon, Darth Maul, And The Invisible Wall
26. The Gungans Retreat And The Queen Surrenders
27. The Death Of Qui-Gon And The Surrender Of The Gungans
28. The Tide Turns/The Death Of Darth Maul
29. The Queen Confronts Nute And Rune
30. The Funeral Of Qui-Gon
31. The Parade
32. End Credits
33. Duel Of The Fates (Dialogue Version)
Доп. информация:
 
Exact Audio Copy V0.99 prebeta 4 from 23. January 2008

EAC extraction logfile from 14. May 2009, 17:18

John Williams / Star Wars Episode I: The Phantom Menace - The Ultimate Edition (1)

Used drive : HP DVD Writer 840x Adapter: 1 ID: 0

Read mode : SecureUtilize accurate stream : YesDefeat audio cache : YesMake use of C2 pointers : No

Read offset correction : 102Overread into Lead-In and Lead-Out : NoFill up missing offset samples with silence : YesDelete leading and trailing silent blocks : NoNull samples used in CRC calculations : YesUsed interface : Installed external ASPI interfaceGap handling : Appended to previous track

Used output format : User Defined EncoderSelected bitrate : 192 kBit/sQuality : HighAdd ID3 tag : NoCommand line compressor : C:\Program Files\FLAC\flac.exeAdditional command line options : -8 -A tukey(0.25) -A gauss(0.1875) -b 4096 -V -T "artist=%a" -T "title=%t" -T "album=%g" -T "date=%y" -T "tracknumber=%n" -T "genre=%m" %s --sector-align

TOC of the extracted CD

Track | Start | Length | Start sector | End sector --------------------------------------------------------- 1 | 0:00.00 | 0:23.42 | 0 | 1766 2 | 0:23.42 | 1:24.25 | 1767 | 8091 3 | 1:47.67 | 2:31.35 | 8092 | 19451 4 | 4:19.27 | 1:18.38 | 19452 | 25339 5 | 5:37.65 | 1:44.60 | 25340 | 33199 6 | 7:22.50 | 2:23.25 | 33200 | 43949 7 | 9:46.00 | 1:00.72 | 43950 | 48521 8 | 10:46.72 | 0:56.45 | 48522 | 52766 9 | 11:43.42 | 3:05.15 | 52767 | 66656 10 | 14:48.57 | 1:37.48 | 66657 | 73979 11 | 16:26.30 | 1:04.62 | 73980 | 78841 12 | 17:31.17 | 1:18.08 | 78842 | 84699 13 | 18:49.25 | 2:09.05 | 84700 | 94379 14 | 20:58.30 | 1:42.37 | 94380 | 102066 15 | 22:40.67 | 2:04.05 | 102067 | 111371 16 | 24:44.72 | 1:07.58 | 111372 | 116454 17 | 25:52.55 | 2:28.10 | 116455 | 127564 18 | 28:20.65 | 1:17.00 | 127565 | 133339 19 | 29:37.65 | 1:12.15 | 133340 | 138754 20 | 30:50.05 | 1:28.25 | 138755 | 145379 21 | 32:18.30 | 1:18.37 | 145380 | 151266 22 | 33:36.67 | 2:42.18 | 151267 | 163434 23 | 36:19.10 | 1:12.35 | 163435 | 168869 24 | 37:31.45 | 2:59.00 | 168870 | 182294 25 | 40:30.45 | 2:24.27 | 182295 | 193121 26 | 42:54.72 | 1:38.40 | 193122 | 200511 27 | 44:33.37 | 1:24.18 | 200512 | 206829 28 | 45:57.55 | 1:00.25 | 206830 | 211354 29 | 46:58.05 | 0:53.20 | 211355 | 215349 30 | 47:51.25 | 1:59.02 | 215350 | 224276 31 | 49:50.27 | 1:14.10 | 224277 | 229836 32 | 51:04.37 | 1:37.63 | 229837 | 237174 33 | 52:42.25 | 2:17.50 | 237175 | 247499 34 | 55:00.00 | 1:13.57 | 247500 | 253031 35 | 56:13.57 | 1:13.70 | 253032 | 258576

Track 1

Filename N:\Music\Star Wars\Star Wars Episode I - The Phantom Menace (1999, FLAC) - John Williams\Disc 1\01 - Fox Fanfare.wav

Pre-gap length 0:00:02.00

Peak level 80.5 % Track quality 99.5 % Test CRC 7FCE80ED Copy CRC 7FCE80ED Copy OK

Track 2

Filename N:\Music\Star Wars\Star Wars Episode I - The Phantom Menace (1999, FLAC) - John Williams\Disc 1\02 - Star Wars Main Title.wav

Peak level 96.3 % Track quality 99.8 % Test CRC 6AA70960 Copy CRC 6AA70960 Copy OK

Track 3

Filename N:\Music\Star Wars\Star Wars Episode I - The Phantom Menace (1999, FLAC) - John Williams\Disc 1\03 - Boarding the Federation Battleship.wav

Peak level 78.9 % Track quality 100.0 % Test CRC 5135FEBE Copy CRC 5135FEBE Copy OK

Track 4

Filename N:\Music\Star Wars\Star Wars Episode I - The Phantom Menace (1999, FLAC) - John Williams\Disc 1\04 - Death Warrant for Qui-Gon and Obi-Wan.wav

Peak level 98.5 % Track quality 100.0 % Test CRC D8246963 Copy CRC D8246963 Copy OK

Track 5

Filename N:\Music\Star Wars\Star Wars Episode I - The Phantom Menace (1999, FLAC) - John Williams\Disc 1\05 - Fighting the Destroyer Droids.wav

Peak level 99.8 % Track quality 100.0 % Test CRC A8B36AAB Copy CRC A8B36AAB Copy OK

Track 6

Filename N:\Music\Star Wars\Star Wars Episode I - The Phantom Menace (1999, FLAC) - John Williams\Disc 1\06 - Queen Amidala Warns the Federation.wav

Peak level 99.8 % Track quality 100.0 % Test CRC 4CFE8FB3 Copy CRC 4CFE8FB3 Copy OK

Track 7

Filename N:\Music\Star Wars\Star Wars Episode I - The Phantom Menace (1999, FLAC) - John Williams\Disc 1\07 - The Droid Invasion.wav

Peak level 99.8 % Track quality 100.0 % Test CRC 8B76A252 Copy CRC 8B76A252 Copy OK

Track 8

Filename N:\Music\Star Wars\Star Wars Episode I - The Phantom Menace (1999, FLAC) - John Williams\Disc 1\08 - Swimming to Otoh Gunga.wav

Peak level 64.8 % Track quality 100.0 % Test CRC 6CA51078 Copy CRC 6CA51078 Copy OK

Track 9

Filename N:\Music\Star Wars\Star Wars Episode I - The Phantom Menace (1999, FLAC) - John Williams\Disc 1\09 - Inside the Bubble City.wav

Peak level 55.8 % Track quality 100.0 % Test CRC 4771E3E0 Copy CRC 4771E3E0 Copy OK

Track 10

Filename N:\Music\Star Wars\Star Wars Episode I - The Phantom Menace (1999, FLAC) - John Williams\Disc 1\10 - Attack of the Giant Fish.wav

Peak level 99.8 % Track quality 99.8 % Test CRC E73D542A Copy CRC E73D542A Copy OK

Track 11

Filename N:\Music\Star Wars\Star Wars Episode I - The Phantom Menace (1999, FLAC) - John Williams\Disc 1\11 - Darth Sidious.wav

Peak level 64.1 % Track quality 100.0 % Test CRC 1730DDE3 Copy CRC 1730DDE3 Copy OK

Track 12

Filename N:\Music\Star Wars\Star Wars Episode I - The Phantom Menace (1999, FLAC) - John Williams\Disc 1\12 - The Giant Squid and the Attack on Theed.wav

Peak level 99.8 % Track quality 100.0 % Test CRC 5398F10D Copy CRC 5398F10D Copy OK

Track 13

Filename N:\Music\Star Wars\Star Wars Episode I - The Phantom Menace (1999, FLAC) - John Williams\Disc 1\13 - Qui-Gon and Obi-Wan Rescue the Queen.wav

Peak level 99.8 % Track quality 100.0 % Test CRC ECA26BB3 Copy CRC ECA26BB3 Copy OK

Track 14

Filename N:\Music\Star Wars\Star Wars Episode I - The Phantom Menace (1999, FLAC) - John Williams\Disc 1\14 - Fighting the Guards.wav

Peak level 99.8 % Track quality 100.0 % Test CRC 4654A6F7 Copy CRC 4654A6F7 Copy OK

Track 15

Filename N:\Music\Star Wars\Star Wars Episode I - The Phantom Menace (1999, FLAC) - John Williams\Disc 1\15 - Escape from Naboo.wav

Peak level 99.8 % Track quality 100.0 % Test CRC F6606BC8 Copy CRC F6606BC8 Copy OK

Track 16

Filename N:\Music\Star Wars\Star Wars Episode I - The Phantom Menace (1999, FLAC) - John Williams\Disc 1\16 - Enter Darth Maul.wav

Peak level 78.4 % Track quality 100.0 % Test CRC D48461A2 Copy CRC D48461A2 Copy OK

Track 17

Filename N:\Music\Star Wars\Star Wars Episode I - The Phantom Menace (1999, FLAC) - John Williams\Disc 1\17 - The Arrival at Tatooine.wav

Peak level 57.2 % Track quality 100.0 % Test CRC 2D92E149 Copy CRC 2D92E149 Copy OK

Track 18

Filename N:\Music\Star Wars\Star Wars Episode I - The Phantom Menace (1999, FLAC) - John Williams\Disc 1\18 - Street Band of Mos Espa.wav

Peak level 29.4 % Track quality 100.0 % Test CRC 865BEE3D Copy CRC 865BEE3D Copy OK

Track 19

Filename N:\Music\Star Wars\Star Wars Episode I - The Phantom Menace (1999, FLAC) - John Williams\Disc 1\19 - Padme Meets Anakin.wav

Peak level 28.0 % Track quality 100.0 % Test CRC 99FC95FA Copy CRC 99FC95FA Copy OK

Track 20

Filename N:\Music\Star Wars\Star Wars Episode I - The Phantom Menace (1999, FLAC) - John Williams\Disc 1\20 - Desert Winds (Bonus Track).wav

Peak level 37.2 % Track quality 99.8 % Test CRC 86A4FD5D Copy CRC 86A4FD5D Copy OK

Track 21

Filename N:\Music\Star Wars\Star Wars Episode I - The Phantom Menace (1999, FLAC) - John Williams\Disc 1\21 - Jar Jar's Run-In with Sebulba.wav

Peak level 52.4 % Track quality 100.0 % Test CRC ED3BA49D Copy CRC ED3BA49D Copy OK

Track 22

Filename N:\Music\Star Wars\Star Wars Episode I - The Phantom Menace (1999, FLAC) - John Williams\Disc 1\22 - Anakin's Home and the Introduction to Threepio.wav

Peak level 99.8 % Track quality 100.0 % Test CRC BA19E261 Copy CRC BA19E261 Copy OK

Track 23

Filename N:\Music\Star Wars\Star Wars Episode I - The Phantom Menace (1999, FLAC) - John Williams\Disc 1\23 - Darth Sidious and Darth Maul.wav

Peak level 99.8 % Track quality 100.0 % Test CRC 0B268ED6 Copy CRC 0B268ED6 Copy OK

Track 24

Filename N:\Music\Star Wars\Star Wars Episode I - The Phantom Menace (1999, FLAC) - John Williams\Disc 1\24 - Talk of Podracing.wav

Peak level 50.7 % Track quality 99.9 % Test CRC F403D97A Copy CRC F403D97A Copy OK

Track 25

Filename N:\Music\Star Wars\Star Wars Episode I - The Phantom Menace (1999, FLAC) - John Williams\Disc 1\25 - Watto's Deal , Shmi and Qui-Gon Talk.wav

Peak level 65.4 % Track quality 100.0 % Test CRC C7396768 Copy CRC C7396768 Copy OK

Track 26

Filename N:\Music\Star Wars\Star Wars Episode I - The Phantom Menace (1999, FLAC) - John Williams\Disc 1\26 - Anakin, Podracer Mechanic.wav

Peak level 29.0 % Track quality 100.0 % Test CRC F31AEE97 Copy CRC F31AEE97 Copy OK

Track 27

Filename N:\Music\Star Wars\Star Wars Episode I - The Phantom Menace (1999, FLAC) - John Williams\Disc 1\27 - The Racer Roars to Life , Anakin's Midi-Chlorian Count.wav

Peak level 59.6 % Track quality 100.0 % Test CRC E74576F8 Copy CRC E74576F8 Copy OK

Track 28

Filename N:\Music\Star Wars\Star Wars Episode I - The Phantom Menace (1999, FLAC) - John Williams\Disc 1\28 - Darth Maul and the Sith Spacecraft.wav

Peak level 99.8 % Track quality 100.0 % Test CRC 76F898CC Copy CRC 76F898CC Copy OK

Track 29

Filename N:\Music\Star Wars\Star Wars Episode I - The Phantom Menace (1999, FLAC) - John Williams\Disc 1\29 - Mos Espa Arena Band.wav

Peak level 24.1 % Track quality 100.0 % Test CRC ABB4C8D0 Copy CRC ABB4C8D0 Copy OK

Track 30

Filename N:\Music\Star Wars\Star Wars Episode I - The Phantom Menace (1999, FLAC) - John Williams\Disc 1\30 - Watto's Roll of the Die.wav

Peak level 41.4 % Track quality 100.0 % Test CRC 2DD3C663 Copy CRC 2DD3C663 Copy OK

Track 31

Filename N:\Music\Star Wars\Star Wars Episode I - The Phantom Menace (1999, FLAC) - John Williams\Disc 1\31 - The Flag Parade.wav

Peak level 99.8 % Track quality 100.0 % Test CRC 2D644924 Copy CRC 2D644924 Copy OK

Track 32

Filename N:\Music\Star Wars\Star Wars Episode I - The Phantom Menace (1999, FLAC) - John Williams\Disc 1\32 - Sebulba's Dirty Hand , Qui-Gon's Pep Talk.wav

Peak level 99.8 % Track quality 100.0 % Test CRC 22F2AA40 Copy CRC 22F2AA40 Copy OK

Track 33

Filename N:\Music\Star Wars\Star Wars Episode I - The Phantom Menace (1999, FLAC) - John Williams\Disc 1\33 - Anakin Defeats Sebulba.wav

Peak level 99.8 % Track quality 100.0 % Test CRC DFA3A7F4 Copy CRC DFA3A7F4 Copy OK

Track 34

Filename N:\Music\Star Wars\Star Wars Episode I - The Phantom Menace (1999, FLAC) - John Williams\Disc 1\34 - Hail to The Winner, Anakin Skywalker.wav

Peak level 99.8 % Track quality 100.0 % Test CRC 44CB7095 Copy CRC 44CB7095 Copy OK

Track 35

Filename N:\Music\Star Wars\Star Wars Episode I - The Phantom Menace (1999, FLAC) - John Williams\Disc 1\35 - The Street Singer.wav

Peak level 30.8 % Track quality 100.0 % Test CRC C35A106D Copy CRC C35A106D Copy OK

No errors occurred

End of status report
 
Exact Audio Copy V0.99 prebeta 4 from 23. January 2008

EAC extraction logfile from 14. May 2009, 20:56

John Williams / Star Wars Episode I: The Phantom Menace - The Ultimate Edition (2)

Used drive : TSSTcorpDVD-ROM TS-H352C Adapter: 1 ID: 1

Read mode : SecureUtilize accurate stream : YesDefeat audio cache : YesMake use of C2 pointers : No

Read offset correction : 6Overread into Lead-In and Lead-Out : NoFill up missing offset samples with silence : YesDelete leading and trailing silent blocks : NoNull samples used in CRC calculations : YesUsed interface : Installed external ASPI interfaceGap handling : Appended to previous track

Used output format : User Defined EncoderSelected bitrate : 192 kBit/sQuality : HighAdd ID3 tag : NoCommand line compressor : C:\Program Files\FLAC\flac.exeAdditional command line options : -8 -A tukey(0.25) -A gauss(0.1875) -b 4096 -V -T "artist=%a" -T "title=%t" -T "album=%g" -T "date=%y" -T "tracknumber=%n" -T "genre=%m" %s --sector-align

TOC of the extracted CD

Track | Start | Length | Start sector | End sector --------------------------------------------------------- 1 | 0:00.00 | 5:04.05 | 0 | 22804 2 | 5:04.05 | 1:48.12 | 22805 | 30916 3 | 6:52.17 | 4:11.08 | 30917 | 49749 4 | 11:03.25 | 0:41.52 | 49750 | 52876 5 | 11:45.02 | 2:37.50 | 52877 | 64701 6 | 14:22.52 | 1:12.30 | 64702 | 70131 7 | 15:35.07 | 3:41.53 | 70132 | 86759 8 | 19:16.60 | 3:47.65 | 86760 | 103849 9 | 23:04.50 | 0:29.02 | 103850 | 106026 10 | 23:33.52 | 2:19.63 | 106027 | 116514 11 | 25:53.40 | 2:25.40 | 116515 | 127429 12 | 28:19.05 | 2:31.15 | 127430 | 138769 13 | 30:50.20 | 0:25.30 | 138770 | 140674 14 | 31:15.50 | 0:57.42 | 140675 | 144991 15 | 32:13.17 | 0:18.58 | 144992 | 146399 16 | 32:32.00 | 0:24.30 | 146400 | 148229 17 | 32:56.30 | 1:26.25 | 148230 | 154704 18 | 34:22.55 | 0:44.25 | 154705 | 158029 19 | 35:07.05 | 0:24.15 | 158030 | 159844 20 | 35:31.20 | 0:51.32 | 159845 | 163701 21 | 36:22.52 | 0:47.48 | 163702 | 167274 22 | 37:10.25 | 0:59.45 | 167275 | 171744 23 | 38:09.70 | 1:59.07 | 171745 | 180676 24 | 40:09.02 | 1:22.35 | 180677 | 186861 25 | 41:31.37 | 0:14.28 | 186862 | 187939 26 | 41:45.65 | 2:18.15 | 187940 | 198304 27 | 44:04.05 | 2:28.45 | 198305 | 209449 28 | 46:32.50 | 3:24.25 | 209450 | 224774 29 | 49:57.00 | 1:47.72 | 224775 | 232871 30 | 51:44.72 | 1:18.30 | 232872 | 238751 31 | 53:03.27 | 1:24.20 | 238752 | 245071 32 | 54:27.47 | 8:14.63 | 245072 | 282184 33 | 62:42.35 | 4:21.45 | 282185 | 301804

Track 1

Filename N:\Music\Star Wars\Star Wars Episode I - The Phantom Menace (1999, FLAC) - John Williams\Disc 2\01 - Anakin Is Free.wav

Pre-gap length 0:00:02.00

Peak level 99.7 % Track quality 100.0 % Test CRC BB135554 Copy CRC BB135554 Copy OK

Track 2

Filename N:\Music\Star Wars\Star Wars Episode I - The Phantom Menace (1999, FLAC) - John Williams\Disc 2\02 - Qui-Gon and Darth Maul Meet.wav

Peak level 99.8 % Track quality 100.0 % Test CRC 42773706 Copy CRC 42773706 Copy OK

Track 3

Filename N:\Music\Star Wars\Star Wars Episode I - The Phantom Menace (1999, FLAC) - John Williams\Disc 2\03 - Anakin and Group to Coruscant.wav

Peak level 99.8 % Track quality 100.0 % Test CRC 3AF9563F Copy CRC 3AF9563F Copy OK

Track 4

Filename N:\Music\Star Wars\Star Wars Episode I - The Phantom Menace (1999, FLAC) - John Williams\Disc 2\04 - The Queen and Palpatine.wav

Peak level 43.1 % Track quality 100.0 % Test CRC DC6CA754 Copy CRC DC6CA754 Copy OK

Track 5

Filename N:\Music\Star Wars\Star Wars Episode I - The Phantom Menace (1999, FLAC) - John Williams\Disc 2\05 - High Council Meeting.wav

Peak level 99.7 % Track quality 100.0 % Test CRC A72AA63E Copy CRC A72AA63E Copy OK

Track 6

Filename N:\Music\Star Wars\Star Wars Episode I - The Phantom Menace (1999, FLAC) - John Williams\Disc 2\06 - The Senate.wav

Peak level 45.6 % Track quality 99.8 % Test CRC C6EC3836 Copy CRC C6EC3836 Copy OK

Track 7

Filename N:\Music\Star Wars\Star Wars Episode I - The Phantom Menace (1999, FLAC) - John Williams\Disc 2\07 - Anakin's Test.wav

Peak level 42.8 % Track quality 100.0 % Test CRC 94D6F79E Copy CRC 94D6F79E Copy OK

Track 8

Filename N:\Music\Star Wars\Star Wars Episode I - The Phantom Menace (1999, FLAC) - John Williams\Disc 2\08 - Qui-Gon's Mission , Obi-Wan's Warning.wav

Peak level 99.8 % Track quality 100.0 % Test CRC 4F6F474D Copy CRC 4F6F474D Copy OK

Track 9

Filename N:\Music\Star Wars\Star Wars Episode I - The Phantom Menace (1999, FLAC) - John Williams\Disc 2\09 - Nute and Rune Confer with Darth Sidious.wav

Peak level 58.4 % Track quality 100.0 % Test CRC 5BF9E9C0 Copy CRC 5BF9E9C0 Copy OK

Track 10

Filename N:\Music\Star Wars\Star Wars Episode I - The Phantom Menace (1999, FLAC) - John Williams\Disc 2\10 - The Queen and Group Land on Naboo.wav

Peak level 99.8 % Track quality 100.0 % Test CRC 9D1F11FB Copy CRC 9D1F11FB Copy OK

Track 11

Filename N:\Music\Star Wars\Star Wars Episode I - The Phantom Menace (1999, FLAC) - John Williams\Disc 2\11 - Jar Jar Leads Group to the Gungans.wav

Peak level 66.9 % Track quality 100.0 % Test CRC C0C6E7F0 Copy CRC C0C6E7F0 Copy OK

Track 12

Filename N:\Music\Star Wars\Star Wars Episode I - The Phantom Menace (1999, FLAC) - John Williams\Disc 2\12 - War Plans.wav

Peak level 64.0 % Track quality 100.0 % Test CRC 759577CD Copy CRC 759577CD Copy OK

Track 13

Filename N:\Music\Star Wars\Star Wars Episode I - The Phantom Menace (1999, FLAC) - John Williams\Disc 2\13 - Darth Sidious Receives News of the Gungan Army.wav

Peak level 34.1 % Track quality 100.0 % Test CRC 371AAB67 Copy CRC 371AAB67 Copy OK

Track 14

Filename N:\Music\Star Wars\Star Wars Episode I - The Phantom Menace (1999, FLAC) - John Williams\Disc 2\14 - The Gungans March.wav

Peak level 99.8 % Track quality 100.0 % Test CRC 705DEC95 Copy CRC 705DEC95 Copy OK

Track 15

Filename N:\Music\Star Wars\Star Wars Episode I - The Phantom Menace (1999, FLAC) - John Williams\Disc 2\15 - The Queen and Her Group Sneak Back to the Palace.wav

Peak level 53.8 % Track quality 100.0 % Test CRC 62553E6A Copy CRC 62553E6A Copy OK

Track 16

Filename N:\Music\Star Wars\Star Wars Episode I - The Phantom Menace (1999, FLAC) - John Williams\Disc 2\16 - The Battle Begins.wav

Peak level 99.8 % Track quality 100.0 % Test CRC 25DA67D2 Copy CRC 25DA67D2 Copy OK

Track 17

Filename N:\Music\Star Wars\Star Wars Episode I - The Phantom Menace (1999, FLAC) - John Williams\Disc 2\17 - The Republic Pilots Take Off Into Space.wav

Peak level 99.8 % Track quality 99.8 % Test CRC 10ED1E38 Copy CRC 10ED1E38 Copy OK

Track 18

Filename N:\Music\Star Wars\Star Wars Episode I - The Phantom Menace (1999, FLAC) - John Williams\Disc 2\18 - Activate the Droids.wav

Peak level 99.8 % Track quality 100.0 % Test CRC 0F4D2A5C Copy CRC 0F4D2A5C Copy OK

Track 19

Filename N:\Music\Star Wars\Star Wars Episode I - The Phantom Menace (1999, FLAC) - John Williams\Disc 2\19 - The Gungans Fight Back.wav

Peak level 99.8 % Track quality 100.0 % Test CRC 9D5469AA Copy CRC 9D5469AA Copy OK

Track 20

Filename N:\Music\Star Wars\Star Wars Episode I - The Phantom Menace (1999, FLAC) - John Williams\Disc 2\20 - The Duel Begins.wav

Peak level 99.8 % Track quality 100.0 % Test CRC 9DCB2F08 Copy CRC 9DCB2F08 Copy OK

Track 21

Filename N:\Music\Star Wars\Star Wars Episode I - The Phantom Menace (1999, FLAC) - John Williams\Disc 2\21 - Anakin Takes Off in Spaceship.wav

Peak level 99.8 % Track quality 100.0 % Test CRC DF9179D0 Copy CRC DF9179D0 Copy OK

Track 22

Filename N:\Music\Star Wars\Star Wars Episode I - The Phantom Menace (1999, FLAC) - John Williams\Disc 2\22 - The Duel Continues.wav

Peak level 99.8 % Track quality 100.0 % Test CRC A48620DE Copy CRC A48620DE Copy OK

Track 23

Filename N:\Music\Star Wars\Star Wars Episode I - The Phantom Menace (1999, FLAC) - John Williams\Disc 2\23 - The Battle Rages On.wav

Peak level 99.8 % Track quality 100.0 % Test CRC 07CA1913 Copy CRC 07CA1913 Copy OK

Track 24

Filename N:\Music\Star Wars\Star Wars Episode I - The Phantom Menace (1999, FLAC) - John Williams\Disc 2\24 - Qui-Gon, Obi-Wan, and Darth Maul Continue Battle.wav

Peak level 99.8 % Track quality 100.0 % Test CRC F4AF274F Copy CRC F4AF274F Copy OK

Track 25

Filename N:\Music\Star Wars\Star Wars Episode I - The Phantom Menace (1999, FLAC) - John Williams\Disc 2\25 - Qui-Gon, Darth Maul, and the Invisible Wall.wav

Peak level 51.3 % Track quality 100.0 % Test CRC C8E2ECF5 Copy CRC C8E2ECF5 Copy OK

Track 26

Filename N:\Music\Star Wars\Star Wars Episode I - The Phantom Menace (1999, FLAC) - John Williams\Disc 2\26 - The Gungans Retreat and the Queen Surrenders.wav

Peak level 99.8 % Track quality 100.0 % Test CRC 0A6FFC08 Copy CRC 0A6FFC08 Copy OK

Track 27

Filename N:\Music\Star Wars\Star Wars Episode I - The Phantom Menace (1999, FLAC) - John Williams\Disc 2\27 - The Death of Qui-Gon and the Surrender of the Gungans.wav

Peak level 99.8 % Track quality 100.0 % Test CRC 926D2BD8 Copy CRC 926D2BD8 Copy OK

Track 28

Filename N:\Music\Star Wars\Star Wars Episode I - The Phantom Menace (1999, FLAC) - John Williams\Disc 2\28 - The Tide Turns , The Death of Darth Maul.wav

Peak level 99.8 % Track quality 100.0 % Test CRC CB97185B Copy CRC CB97185B Copy OK

Track 29

Filename N:\Music\Star Wars\Star Wars Episode I - The Phantom Menace (1999, FLAC) - John Williams\Disc 2\29 - The Queen Confronts Nute and Rune.wav

Peak level 53.8 % Track quality 100.0 % Test CRC EAC22213 Copy CRC EAC22213 Copy OK

Track 30

Filename N:\Music\Star Wars\Star Wars Episode I - The Phantom Menace (1999, FLAC) - John Williams\Disc 2\30 - The Funeral of Qui-Gon.wav

Peak level 87.1 % Track quality 100.0 % Test CRC 134B5338 Copy CRC 134B5338 Copy OK

Track 31

Filename N:\Music\Star Wars\Star Wars Episode I - The Phantom Menace (1999, FLAC) - John Williams\Disc 2\31 - The Parade.wav

Peak level 99.8 % Track quality 100.0 % Test CRC A65F4A36 Copy CRC A65F4A36 Copy OK

Track 32

Filename N:\Music\Star Wars\Star Wars Episode I - The Phantom Menace (1999, FLAC) - John Williams\Disc 2\32 - End Credits.wav

Peak level 99.8 % Track quality 100.0 % Test CRC 0F39AC28 Copy CRC 0F39AC28 Copy OK

Track 33

Filename N:\Music\Star Wars\Star Wars Episode I - The Phantom Menace (1999, FLAC) - John Williams\Disc 2\33 - Duel of the Fates (Dialogue Version).wav

Peak level 97.2 % Track quality 100.0 % Test CRC 239FB320 Copy CRC 239FB320 Copy OK

No errors occurred

End of status report


Трекер:  [ 08-Июл-2011 02:12 ]

  

Скачать .torrent

Размер .torrent файла 17 KB


Размер: 566 MB
Хэш (hash) релиза: 0694f8a3870a7bdcfe06e3525942e27ba9525253

Еще никто не оставлял запись к записи скачать торрент John Williams - Star Wars Episode I: The Phantom Menace - 2000 . Будь первым!

!Обратная связь