Скачать через торрент музыку Машина времени в джакузи Hot Tub Time Machine - 2010 бесплатно без регистрации torrent

Если у вас наблюдаются проблемы со скриншотами, переходом по ссылками, скачиванием торрентов - проблемы в блокировщике рекламы AdBlock. #хорошегоДня!


Статистика раздачи
Размер:  410 MB   |    Зарегистрирован:  6 лет 9 месяцев   |    .torrent скачан:  44 раза   |   
Раздают:  1  
   
Загрузка...
 
Автор Сообщение

AqvaGen


Машина времени в джакузи / Hot Tub Time Machine

Жанр: Soundtrack
Год выпуска диска: 2010
Производитель диска: USA
Аудио кодек: FLAC
Тип рипа: tracks+.cue
Битрейт аудио: lossless
Продолжительность: 00:59:51

01 - Public Enemy - Louder Than A Bomb (Back Into Time) (03:00)
02 - Scritti Politti - Perfect Way (04:05)
03 - Men Without Hats - The Safety Dance (02:45)
04 - INXS - What You Need (03:34)
05 - David Bowie - Modern Love (03:58)
06 - The Replacements - I Will Dare (03:19)
07 - Salt N Pepa - Push It (04:30)
08 - Echo & The Bunnymen - Bring On The Dancing Horses (03:56)
09 - The English Beat - Save It For Later (03:34)
10 - Spandau Ballet - True (05:39)
11 - Craig Robinson - Jessie's Girl (02:42)
12 - New Order - Bizarre Love Triangle (06:43)
13 - Talking Heads - Once In A Lifetime (04:19)
14 - Motley Crue - Home Sweet Home (04:04)
15 - Craig Robinson - Let's Get It Started (03:46)

 
X Lossless Decoder version 20100302 (116.6)

XLD extraction logfile from 2010-03-14 23:44:52 -0400

Various Artists / Hot Tub Time Machine (Music From The Motion Picture) [Soundtrack]

Used drive : MATSHITA DVD-R UJ-857E (revision ZA0E)

Use cdparanoia mode : YES (CDParanoia III 10.2 engine)Disable audio cache : OK for the drive with cache less than 2750KBMake use of C2 pointers : NORead offset correction : 102Max retry count : 100

TOC of the extracted CD Track | Start | Length | Start sector | End sector --------------------------------------------------------- 1 | 00:00:00 | 03:00:05 | 0 | 13504 2 | 03:00:05 | 04:04:73 | 13505 | 31877 3 | 07:05:03 | 02:44:46 | 31878 | 44223 4 | 09:49:49 | 03:34:00 | 44224 | 60273 5 | 13:23:49 | 03:57:49 | 60274 | 78097 6 | 17:21:23 | 03:19:21 | 78098 | 93043 7 | 20:40:44 | 04:30:00 | 93044 | 113293 8 | 25:10:44 | 03:55:60 | 113294 | 130978 9 | 29:06:29 | 03:33:74 | 130979 | 147027 10 | 32:40:28 | 05:38:64 | 147028 | 172441 11 | 38:19:17 | 02:41:39 | 172442 | 184555 12 | 41:00:56 | 06:42:29 | 184556 | 214734 13 | 47:43:10 | 04:18:73 | 214735 | 234157 14 | 52:02:08 | 04:04:05 | 234158 | 252462 15 | 56:06:13 | 03:46:10 | 252463 | 269422

All Tracks Album gain : -7.40 dB Peak : 0.997681

Track 01 Filename : /Volumes/LIL HILL/What.CD/FLAC output/FLAC files/Various Artists - Hot Tub Time Machine Soundtrack - 2010/01 Various Artists - Louder Than A Bomb [Back Into Time] - Public Enemy.flac

Pre-gap length : 00:02:00

Track gain : -8.24 dB Peak : 0.974274 CRC32 hash (test run) : E03ABDAC CRC32 hash : E03ABDAC CRC32 hash (skip zero) : 9F68E813 AccurateRip signature : DA563F35 ->Track not present in AccurateRip database. Statistics Read error : 0 Skipped (treated as error) : 0 Edge jitter error (maybe fixed) : 0 Atom jitter error (maybe fixed) : 0 Drift error (maybe fixed) : 0 Dropped bytes error (maybe fixed) : 0 Duplicated bytes error (maybe fixed) : 0 Inconsistency in error sectors : 0

Track 02 Filename : /Volumes/LIL HILL/What.CD/FLAC output/FLAC files/Various Artists - Hot Tub Time Machine Soundtrack - 2010/02 Various Artists - Perfect Way - Scritti Politti.flac

Track gain : -5.18 dB Peak : 0.997681 CRC32 hash (test run) : 709A9277 CRC32 hash : 709A9277 CRC32 hash (skip zero) : F84F6B98 AccurateRip signature : 586F2005 ->Track not present in AccurateRip database. Statistics Read error : 0 Skipped (treated as error) : 0 Edge jitter error (maybe fixed) : 1 Atom jitter error (maybe fixed) : 1 Drift error (maybe fixed) : 0 Dropped bytes error (maybe fixed) : 0 Duplicated bytes error (maybe fixed) : 0 Inconsistency in error sectors : 0

Track 03 Filename : /Volumes/LIL HILL/What.CD/FLAC output/FLAC files/Various Artists - Hot Tub Time Machine Soundtrack - 2010/03 Various Artists - The Safety Dance - Men Without Hats.flac

Track gain : -6.18 dB Peak : 0.997681 CRC32 hash (test run) : 232BA753 CRC32 hash : 232BA753 CRC32 hash (skip zero) : D5C1A7CD AccurateRip signature : FE9BE0EE ->Track not present in AccurateRip database. Statistics Read error : 0 Skipped (treated as error) : 0 Edge jitter error (maybe fixed) : 0 Atom jitter error (maybe fixed) : 0 Drift error (maybe fixed) : 0 Dropped bytes error (maybe fixed) : 0 Duplicated bytes error (maybe fixed) : 0 Inconsistency in error sectors : 0

Track 04 Filename : /Volumes/LIL HILL/What.CD/FLAC output/FLAC files/Various Artists - Hot Tub Time Machine Soundtrack - 2010/04 Various Artists - What You Need - INXS.flac

Track gain : -7.46 dB Peak : 0.997681 CRC32 hash (test run) : 98EA3F90 CRC32 hash : 98EA3F90 CRC32 hash (skip zero) : FDC43299 AccurateRip signature : 6F558B39 ->Track not present in AccurateRip database. Statistics Read error : 0 Skipped (treated as error) : 0 Edge jitter error (maybe fixed) : 0 Atom jitter error (maybe fixed) : 0 Drift error (maybe fixed) : 0 Dropped bytes error (maybe fixed) : 0 Duplicated bytes error (maybe fixed) : 0 Inconsistency in error sectors : 0

Track 05 Filename : /Volumes/LIL HILL/What.CD/FLAC output/FLAC files/Various Artists - Hot Tub Time Machine Soundtrack - 2010/05 Various Artists - Modern Love - David Bowie.flac

Track gain : -5.25 dB Peak : 0.997681 CRC32 hash (test run) : 9BF2E78C CRC32 hash : 9BF2E78C CRC32 hash (skip zero) : 1802F954 AccurateRip signature : 7D97029A ->Track not present in AccurateRip database. Statistics Read error : 0 Skipped (treated as error) : 0 Edge jitter error (maybe fixed) : 0 Atom jitter error (maybe fixed) : 0 Drift error (maybe fixed) : 0 Dropped bytes error (maybe fixed) : 0 Duplicated bytes error (maybe fixed) : 0 Inconsistency in error sectors : 0

Track 06 Filename : /Volumes/LIL HILL/What.CD/FLAC output/FLAC files/Various Artists - Hot Tub Time Machine Soundtrack - 2010/06 Various Artists - I Will Dare - The Replacements.flac

Track gain : -7.91 dB Peak : 0.997681 CRC32 hash (test run) : A0254382 CRC32 hash : A0254382 CRC32 hash (skip zero) : 01E3748D AccurateRip signature : 802A5836 ->Track not present in AccurateRip database. Statistics Read error : 0 Skipped (treated as error) : 0 Edge jitter error (maybe fixed) : 0 Atom jitter error (maybe fixed) : 0 Drift error (maybe fixed) : 0 Dropped bytes error (maybe fixed) : 0 Duplicated bytes error (maybe fixed) : 0 Inconsistency in error sectors : 0

Track 07 Filename : /Volumes/LIL HILL/What.CD/FLAC output/FLAC files/Various Artists - Hot Tub Time Machine Soundtrack - 2010/07 Various Artists - Push It - Salt N Pepa.flac

Track gain : -6.45 dB Peak : 0.997681 CRC32 hash (test run) : 9A7A3A6C CRC32 hash : 9A7A3A6C CRC32 hash (skip zero) : 62058329 AccurateRip signature : 87EB3817 ->Track not present in AccurateRip database. Statistics Read error : 0 Skipped (treated as error) : 0 Edge jitter error (maybe fixed) : 0 Atom jitter error (maybe fixed) : 0 Drift error (maybe fixed) : 0 Dropped bytes error (maybe fixed) : 0 Duplicated bytes error (maybe fixed) : 0 Inconsistency in error sectors : 0

Track 08 Filename : /Volumes/LIL HILL/What.CD/FLAC output/FLAC files/Various Artists - Hot Tub Time Machine Soundtrack - 2010/08 Various Artists - Bring On The Dancing Horses - Echo & The Bunnymen.flac

Track gain : -8.62 dB Peak : 0.997681 CRC32 hash (test run) : C19960B1 CRC32 hash : C19960B1 CRC32 hash (skip zero) : 575A6814 AccurateRip signature : 45711FB1 ->Track not present in AccurateRip database. Statistics Read error : 0 Skipped (treated as error) : 0 Edge jitter error (maybe fixed) : 0 Atom jitter error (maybe fixed) : 0 Drift error (maybe fixed) : 0 Dropped bytes error (maybe fixed) : 0 Duplicated bytes error (maybe fixed) : 0 Inconsistency in error sectors : 0

Track 09 Filename : /Volumes/LIL HILL/What.CD/FLAC output/FLAC files/Various Artists - Hot Tub Time Machine Soundtrack - 2010/09 Various Artists - Save It For Later - The English Beat.flac

Track gain : -7.64 dB Peak : 0.997681 CRC32 hash (test run) : 3A46BACE CRC32 hash : 3A46BACE CRC32 hash (skip zero) : 69AB2009 AccurateRip signature : F1160285 ->Track not present in AccurateRip database. Statistics Read error : 0 Skipped (treated as error) : 0 Edge jitter error (maybe fixed) : 0 Atom jitter error (maybe fixed) : 0 Drift error (maybe fixed) : 0 Dropped bytes error (maybe fixed) : 0 Duplicated bytes error (maybe fixed) : 0 Inconsistency in error sectors : 0

Track 10 Filename : /Volumes/LIL HILL/What.CD/FLAC output/FLAC files/Various Artists - Hot Tub Time Machine Soundtrack - 2010/10 Various Artists - True - Spandau Ballet.flac

Track gain : -4.99 dB Peak : 0.997681 CRC32 hash (test run) : 3FAAEB98 CRC32 hash : 3FAAEB98 CRC32 hash (skip zero) : 0EE80F9C AccurateRip signature : 3447A9F9 ->Track not present in AccurateRip database. Statistics Read error : 0 Skipped (treated as error) : 0 Edge jitter error (maybe fixed) : 0 Atom jitter error (maybe fixed) : 0 Drift error (maybe fixed) : 0 Dropped bytes error (maybe fixed) : 0 Duplicated bytes error (maybe fixed) : 0 Inconsistency in error sectors : 0

Track 11 Filename : /Volumes/LIL HILL/What.CD/FLAC output/FLAC files/Various Artists - Hot Tub Time Machine Soundtrack - 2010/11 Various Artists - Jessie's Girl - Craig Robinson.flac

Pre-gap length : 00:00:59

Track gain : -6.62 dB Peak : 0.997681 CRC32 hash (test run) : 92FED460 CRC32 hash : 92FED460 CRC32 hash (skip zero) : 0B633AB5 AccurateRip signature : 2A6FBD7B ->Track not present in AccurateRip database. Statistics Read error : 0 Skipped (treated as error) : 0 Edge jitter error (maybe fixed) : 0 Atom jitter error (maybe fixed) : 0 Drift error (maybe fixed) : 0 Dropped bytes error (maybe fixed) : 0 Duplicated bytes error (maybe fixed) : 0 Inconsistency in error sectors : 0

Track 12 Filename : /Volumes/LIL HILL/What.CD/FLAC output/FLAC files/Various Artists - Hot Tub Time Machine Soundtrack - 2010/12 Various Artists - Bizarre Love Triangle - New Order.flac

Track gain : -7.09 dB Peak : 0.997681 CRC32 hash (test run) : 5ADC5B2B CRC32 hash : 5ADC5B2B CRC32 hash (skip zero) : 9CED2C25 AccurateRip signature : 63F9C946 ->Track not present in AccurateRip database. Statistics Read error : 0 Skipped (treated as error) : 0 Edge jitter error (maybe fixed) : 0 Atom jitter error (maybe fixed) : 0 Drift error (maybe fixed) : 0 Dropped bytes error (maybe fixed) : 0 Duplicated bytes error (maybe fixed) : 0 Inconsistency in error sectors : 0

Track 13 Filename : /Volumes/LIL HILL/What.CD/FLAC output/FLAC files/Various Artists - Hot Tub Time Machine Soundtrack - 2010/13 Various Artists - Once In A Lifetime - Talking Heads.flac

Pre-gap length : 00:00:27

Track gain : -7.04 dB Peak : 0.997681 CRC32 hash (test run) : 3C854C45 CRC32 hash : 3C854C45 CRC32 hash (skip zero) : FE19B061 AccurateRip signature : 808791EC ->Track not present in AccurateRip database. Statistics Read error : 0 Skipped (treated as error) : 0 Edge jitter error (maybe fixed) : 0 Atom jitter error (maybe fixed) : 0 Drift error (maybe fixed) : 0 Dropped bytes error (maybe fixed) : 0 Duplicated bytes error (maybe fixed) : 0 Inconsistency in error sectors : 0

Track 14 Filename : /Volumes/LIL HILL/What.CD/FLAC output/FLAC files/Various Artists - Hot Tub Time Machine Soundtrack - 2010/14 Various Artists - Home Sweet Home - Motley Crue.flac

Track gain : -7.73 dB Peak : 0.997681 CRC32 hash (test run) : B8B999C5 CRC32 hash : B8B999C5 CRC32 hash (skip zero) : D018FB99 AccurateRip signature : CF69FFC1 ->Track not present in AccurateRip database. Statistics Read error : 0 Skipped (treated as error) : 0 Edge jitter error (maybe fixed) : 0 Atom jitter error (maybe fixed) : 0 Drift error (maybe fixed) : 0 Dropped bytes error (maybe fixed) : 0 Duplicated bytes error (maybe fixed) : 0 Inconsistency in error sectors : 0

Track 15 Filename : /Volumes/LIL HILL/What.CD/FLAC output/FLAC files/Various Artists - Hot Tub Time Machine Soundtrack - 2010/15 Various Artists - Let's Get It Started - Craig Robinson.flac

Track gain : -8.28 dB Peak : 0.997681 CRC32 hash (test run) : 2FB6F9AA CRC32 hash : 2FB6F9AA CRC32 hash (skip zero) : 2955D693 AccurateRip signature : 26965135 ->Track not present in AccurateRip database. Statistics Read error : 0 Skipped (treated as error) : 0 Edge jitter error (maybe fixed) : 0 Atom jitter error (maybe fixed) : 0 Drift error (maybe fixed) : 0 Dropped bytes error (maybe fixed) : 0 Duplicated bytes error (maybe fixed) : 0 Inconsistency in error sectors : 0

No errors occurred

End of status report
 
TITLE "Hot Tub Time Machine (Music From The Motion Picture) [Soundtrack]"CATALOG 0081227981082REM DATE 2010REM REPLAYGAIN_ALBUM_GAIN -7.40 dBREM REPLAYGAIN_ALBUM_PEAK 0.997681FILE "01 Various Artists - Louder Than A Bomb [Back Into Time] - Public Enemy.wav" WAVE TRACK 01 AUDIO TITLE "Louder Than A Bomb [Back Into Time] - Public Enemy" PERFORMER "Various Artists" ISRC USDAE1000001 REM REPLAYGAIN_TRACK_GAIN -8.24 dB REM REPLAYGAIN_TRACK_PEAK 0.974274 INDEX 01 00:00:00FILE "02 Various Artists - Perfect Way - Scritti Politti.wav" WAVE TRACK 02 AUDIO TITLE "Perfect Way - Scritti Politti" PERFORMER "Various Artists" ISRC USWB10603061 REM REPLAYGAIN_TRACK_GAIN -5.18 dB REM REPLAYGAIN_TRACK_PEAK 0.997681 INDEX 01 00:00:00FILE "03 Various Artists - The Safety Dance - Men Without Hats.wav" WAVE TRACK 03 AUDIO TITLE "The Safety Dance - Men Without Hats" PERFORMER "Various Artists" ISRC USMC18314274 REM REPLAYGAIN_TRACK_GAIN -6.18 dB REM REPLAYGAIN_TRACK_PEAK 0.997681 INDEX 01 00:00:00FILE "04 Various Artists - What You Need - INXS.wav" WAVE TRACK 04 AUDIO TITLE "What You Need - INXS" PERFORMER "Various Artists" ISRC USAT29901626 REM REPLAYGAIN_TRACK_GAIN -7.46 dB REM REPLAYGAIN_TRACK_PEAK 0.997681 INDEX 01 00:00:00FILE "05 Various Artists - Modern Love - David Bowie.wav" WAVE TRACK 05 AUDIO TITLE "Modern Love - David Bowie" PERFORMER "Various Artists" ISRC USJT10200040 REM REPLAYGAIN_TRACK_GAIN -5.25 dB REM REPLAYGAIN_TRACK_PEAK 0.997681 INDEX 01 00:00:00FILE "06 Various Artists - I Will Dare - The Replacements.wav" WAVE TRACK 06 AUDIO TITLE "I Will Dare - The Replacements" PERFORMER "Various Artists" ISRC USRS73761001 REM REPLAYGAIN_TRACK_GAIN -7.91 dB REM REPLAYGAIN_TRACK_PEAK 0.997681 INDEX 01 00:00:00FILE "07 Various Artists - Push It - Salt N Pepa.wav" WAVE TRACK 07 AUDIO TITLE "Push It - Salt N Pepa" PERFORMER "Various Artists" ISRC USIR20180482 REM REPLAYGAIN_TRACK_GAIN -6.45 dB REM REPLAYGAIN_TRACK_PEAK 0.997681 INDEX 01 00:00:00FILE "08 Various Artists - Bring On The Dancing Horses - Echo & The Bunnymen.wav" WAVE TRACK 08 AUDIO TITLE "Bring On The Dancing Horses - Echo & The Bunnymen" PERFORMER "Various Artists" ISRC GBAHT0200124 REM REPLAYGAIN_TRACK_GAIN -8.62 dB REM REPLAYGAIN_TRACK_PEAK 0.997681 INDEX 01 00:00:00FILE "09 Various Artists - Save It For Later - The English Beat.wav" WAVE TRACK 09 AUDIO TITLE "Save It For Later - The English Beat" PERFORMER "Various Artists" ISRC GBAAP8200008 REM REPLAYGAIN_TRACK_GAIN -7.64 dB REM REPLAYGAIN_TRACK_PEAK 0.997681 INDEX 01 00:00:00FILE "10 Various Artists - True - Spandau Ballet.wav" WAVE TRACK 10 AUDIO TITLE "True - Spandau Ballet" PERFORMER "Various Artists" ISRC GBAYK8300001 REM REPLAYGAIN_TRACK_GAIN -4.99 dB REM REPLAYGAIN_TRACK_PEAK 0.997681 INDEX 01 00:00:00 TRACK 11 AUDIO TITLE "Jessie's Girl - Craig Robinson" PERFORMER "Various Artists" ISRC USRHD1000087 REM REPLAYGAIN_TRACK_GAIN -6.62 dB REM REPLAYGAIN_TRACK_PEAK 0.997681 INDEX 00 05:38:05FILE "11 Various Artists - Jessie's Girl - Craig Robinson.wav" WAVE INDEX 01 00:00:00FILE "12 Various Artists - Bizarre Love Triangle - New Order.wav" WAVE TRACK 12 AUDIO TITLE "Bizarre Love Triangle - New Order" PERFORMER "Various Artists" ISRC GBCRL0900211 REM REPLAYGAIN_TRACK_GAIN -7.09 dB REM REPLAYGAIN_TRACK_PEAK 0.997681 INDEX 01 00:00:00 TRACK 13 AUDIO TITLE "Once In A Lifetime - Talking Heads" PERFORMER "Various Artists" ISRC USWB10600141 REM REPLAYGAIN_TRACK_GAIN -7.04 dB REM REPLAYGAIN_TRACK_PEAK 0.997681 INDEX 00 06:42:02FILE "13 Various Artists - Once In A Lifetime - Talking Heads.wav" WAVE INDEX 01 00:00:00FILE "14 Various Artists - Home Sweet Home - Motley Crue.wav" WAVE TRACK 14 AUDIO TITLE "Home Sweet Home - Motley Crue" PERFORMER "Various Artists" ISRC USDPK0915014 REM REPLAYGAIN_TRACK_GAIN -7.73 dB REM REPLAYGAIN_TRACK_PEAK 0.997681 INDEX 01 00:00:00FILE "15 Various Artists - Let's Get It Started - Craig Robinson.wav" WAVE TRACK 15 AUDIO TITLE "Let's Get It Started - Craig Robinson" PERFORMER "Various Artists" ISRC USRHD1000088 REM REPLAYGAIN_TRACK_GAIN -8.28 dB REM REPLAYGAIN_TRACK_PEAK 0.997681 INDEX 01 00:00:00


Трекер:  [ 19-Дек-2010 16:12 ]

  

Скачать .torrent

Размер .torrent файла 18 KB


Размер: 410 MB
Хэш (hash) релиза: cbfd82ad3caaaa8385fd7645a4c5fa6198d64596

Торренты, похожие на Машина времени в джакузи Hot Tub Time Machine - 2010 скачать торрент

Форум Название Автор Размер S L Добавлен
Саундтреки к фильмам и мультфильмам (mp3) ·· (Soundtrack) Машина времени в джакузи / Hot Tub Time Machine - 2010 [MP3 320 kbps] AqvaGen 143885016137 MB 0 0 1292265241

21:34

13-Дек-10

bot

Топик был перенесен в форум Саундтреки к фильмам и мультфильмам (lossless)

Перенес AqvaGen

Хотите добавить комментарий к записи скачать торрент Машина времени в джакузи Hot Tub Time Machine - 2010

!Обратная связь