Скачать через торрент музыку Flashdance: Original Soundtrack From The Motion Picture - 1998 бесплатно без регистрации torrent

Если у вас наблюдаются проблемы со скриншотами, переходом по ссылками, скачиванием торрентов - проблемы в блокировщике рекламы AdBlock. #хорошегоДня!


Статистика раздачи
Размер:  224 MB   |    Зарегистрирован:  6 лет 5 месяцев   |    .torrent скачан:  53 раза   |   
Раздают:  1  
   
Загрузка...
 
Автор Сообщение

Galfimbul

avatar Galfimbul


Flashdance: Original Soundtrack From The Motion Picture

Страна: U.S.A.
Жанр: Soundtrack
Год выпуска: 1998
Формат: APE (image + .cue)
Битрейт аудио: lossless
Продолжительность: 00.37.02
Covers: есть
01-Flashdance...What A Feeling - Irene Cara
02-He's A Dream - Shandi
03-Love Theme From Flashdance - Helen St. John
04-Manhunt - Karen Kamon
05-Lady, Lady, Lady - Joe Bean Esposito
06-Imagination - Laura Branigan
07-Romeo - Donna Summer
08-Seduce Me Tonight - Cycle V
09-I'll Be Here Where The Heart Is - Kim Carnes
10-Maniac - Michael Sembello
Дисковод: PIONEER DVD-RW DVR-112 Adapter: 0 ID: 0

Режим чтения : Достоверность
Использование точного потока : Да
Отключение кэша аудио : Да
Использование указателей C2 : Нет

Коррекция смещения при чтении : 48
Способность читать области Lead-in и Lead-out : Нет
Заполнение пропущенных сэмплов тишиной : Да
Удаление блоков с тишиной в начале и конце : Нет
При вычислениях CRC использовались нулевые сэмплы : Да
Интерфейс : Встроенный Win32-интерфейс для Win NT/2000

Выходной формат : Внутренние WAV-операции
Формат сэмплов : 44.100 Гц; 16 бит; стерео

TOC извлечённого CD

Трек | Старт | Длительность | Начальный сектор | Конечный сектор
---------------------------------------------------------------------
1 | 0:00.00 | 3:56.25 | 0 | 17724
2 | 3:56.25 | 3:30.52 | 17725 | 33526
3 | 7:27.02 | 3:29.64 | 33527 | 49265
4 | 10:56.66 | 2:39.39 | 49266 | 61229
5 | 13:36.30 | 4:11.70 | 61230 | 80124
6 | 17:48.25 | 3:37.56 | 80125 | 96455
7 | 21:26.06 | 3:15.35 | 96456 | 111115
8 | 24:41.41 | 3:34.31 | 111116 | 127196
9 | 28:15.72 | 4:39.04 | 127197 | 148125
10 | 32:55.01 | 4:03.60 | 148126 | 166410

Характеристики диапазона извлечения и сообщения об ошибках

Выбранный диапазон

Имя файла C:\Documents and Settings\Serg\Рабочий стол\иоо\Giorgio Moroder - Flashdance Original Soundtrack From The Motion Picture.wav

Пиковый уровень 99.3 %
Качество диапазона 99.9 %
CRC копии F397304D
Копирование... OK

Ошибок не произошло

Конец отчёта


Трекер:  [ 07-Июл-2011 23:28 ]

  

Скачать .torrent

Размер .torrent файла 19 KB


Размер: 224 MB
Хэш (hash) релиза: 6add9108c7a0869e3f85b8f09de7f4c84ee31628

Еще никто не оставлял запись к записи скачать торрент Flashdance: Original Soundtrack From The Motion Picture - 1998 . Будь первым!

!Обратная связь