Скачать через торрент музыку Danny Elfman бесплатно без регистрации torrent

Если у вас наблюдаются проблемы со скриншотами, переходом по ссылками, скачиванием торрентов - проблемы в блокировщике рекламы AdBlock. #хорошегоДня!


Статистика раздачи
Размер:  5.92 GB   |    Зарегистрирован:  6 лет 2 месяца   |    .torrent скачан:  48 раз   |   
Раздают:  1  
   
Загрузка...
 
Автор Сообщение

Galfimbul

avatar Galfimbul


(Soundtrack/Discography) Danny Elfman (22 CD) 1988-2008, lossless

Жанр: Soundtrack
Общая продолжительность: 19:26:12
Источник: Коллекция собрана в разное время с разных мест: adamsfile.com, torrent, dc, emule...
Год выпуска: 1988
Жанр: Soundtrack
Формат: Monkey's Audio (621kbps)
Треклист:
01. Main Titles (2:28)
02. Travel Music (1:09)
03. The Book / Obituaries (1:31)
04. Enter...'The Family'/ Sand Worm Planet (2:50)
05. The Fly (0:49)
06. Lydia Discovers? (0:57)
07. In The Model (1:32)
08. Juno's Theme (0:48)
09. Beetle-Snake (2:09)
10. 'Sold' (0:34)
11. The Flier / Lydia's Pep Talk (1:22)
12. Day-O (3:08)
13. The Incantation (3:13)
14. Lydia Strikes A Bargain... (0:51)
15. Showtime! (1:07)
16. 'Laughs' (2:33)
17. The Wedding (2:02)
18. The Aftermath (1:23)
19. End Credits (2:50)
20. Jump In Line (Shake, Shake Senora) (3:43)
EAC extraction logfile from 1. October 2005, 20:02 for CD
Danny Elfman / Beetlejuice

Used drive : SONY DVD-ROM DDU1613 Adapter: 3 ID: 1
Read mode : Secure with NO C2, accurate stream, disable cache
Read offset correction : 12
Overread into Lead-In and Lead-Out : No

Used output format : Internal WAV Routines
44.100 Hz; 16 Bit; Stereo

Other options :
Fill up missing offset samples with silence : Yes
Delete leading and trailing silent blocks : No
Installed external ASPI interface

Range status and errors
Selected range
Filename E:\Danny Elfman - Beetlejuice.wav

Peak level 100.0 %
Range quality 100.0 %
CRC F6430716
Copy OK

No errors occured

End of status report
Год выпуска: 1989
Жанр: Soundtrack
Формат: WavPack (646kbps)
Треклист:
01. The Batman Theme (2:39)
02. Roof Fight (1:22)
03. First Confrontation (4:45)
04. Kitchen, Surgery, Face-Off (3:09)
05. Flowers (1:51)
06. Clown Attack (1:46)
07. Batman to the Rescue (3:58)
08. Roasted Dude (1:02)
09. Photo/Beautiful Dreamer (2:30)
10. Descent into Mistery (1:33)
11. The Bat Cave (2:35)
12. The Joker's Poem (0:58)
13. Childhood Remembered (2:43)
14. Love Theme (1:30)
15. Charge of the Batmobile (1:43)
16. Attack of the Batwing (4:46)
17. Up to the Cathedral (5:06)
18. Waltz to the Death (3:57)
19. The Final Confrontation (3:50)
20. Finale (1:47)
21. Batman Theme Reprise (1:24)
EAC extraction logfile from 17. August 2006, 19:42 for CD
Danny Elfman / Batman

Used drive : PLEXTOR CD-R PREMIUM Adapter: 3 ID: 0
Read mode : Secure with NO C2, accurate stream, disable cache
Read offset correction : 30
Overread into Lead-In and Lead-Out : Yes

Used output format : D:\audio\wavpack\wavpack.exe (User Defined Encoder)
192 kBit/s
Additional command line options : -w "Artist=%a" -w "Title=%t" -w "Album=%g" -w "Year=%y" -w "Track=%n" -w "Genre=%m" -h -m %s %d

Other options :
Fill up missing offset samples with silence : Yes
Delete leading and trailing silent blocks : No
Installed external ASPI interface

Range status and errors
Selected range
Filename E:\cdimages\Danny Elfman - Batman.wav

Peak level 87.4 %
Range quality 100.0 %
CRC 92B3BB86
Copy OK

No errors occured

End of status report
Год выпуска: 1990
Жанр: Soundtrack
Формат: Monkey's Audio (639kbps)
Треклист:
01. Introduction [Titles] (2:37)
02. Storytime (2:35)
03. Castle On The Hill (6:24)
04. Beautiful New World/Home Sweet Home (2:05)
05. The Cookie Factory (2:15)
06. Ballet De Suburbia [Suite] (1:17)
07. Ice Dance (1:45)
08. Etiquette Lesson (1:37)
09. Edwardo The Barber (3:19)
10. Esmeralda (0:26)
11. Death! (3:30)
12. The Tide Turns [Suite] (5:31)
13. The Final Confrontation (2:17)
14. Farewell (2:45)
15. The Grand Finale (3:26)
16. The End (4:47)
17. With These Hands [Performed By Tom Jones] (2:42)
EAC extraction logfile from 24. September 2005, 20:31 for CD
Danny Elfman / Edward Scissorhands

Used drive : PLEXTOR CD-R PX-W1610A Adapter: 1 ID: 0
Read mode : Secure with NO C2, accurate stream, disable cache
Combined read/write offset correction : 0
Overread into Lead-In and Lead-Out : No

Used output format : Internal WAV Routines
44.100 Hz; 16 Bit; Stereo

Other options :
Fill up missing offset samples with silence : Yes
Delete leading and trailing silent blocks : No
Installed external ASPI interface

Range status and errors
Selected range
Filename G:\Temp\Danny Elfman - Edward Scissorhands (1990)\CDImage.wav

Peak level 99.3 %
Range quality 100.0 %
CRC B2E58F21
Copy OK

No errors occured

End of status report
Год выпуска: 1993
Жанр: Soundtrack
Формат: Monkey's Audio (639kbps)
Треклист:
01. Birth Of A Penguin I (2:27)
02. Birth Of A Penguin II (3:10)
03. The Lair I (0:58)
04. The Lair II (4:49)
05. Selina Transforms I (1:11)
06. Selina Transforms II (4:16)
07. The Cemetery (2:55)
08. Cat Suite (5:42)
09. Batman Vs. The Circus (2:34)
10. The Rise And Fall From Grace I (1:41)
11. The Rise And Fall From Grace II (4:08)
12. Sore Spots (2:16)
13. Rooftops \ Wild Ride I (4:20)
14. Rooftops \ Wild Ride II (3:35)
15. The Children's Hour (1:47)
16. The Final Confrontation I (5:13)
17. The Final Confrontation II (4:54)
18. The Finale I (2:40)
19. The Finale II (2:20)
20. End Credits (4:44)
21. Face To Face [Performed By Siouxsie And The Banshees] (4:17)
EAC extraction logfile from 2. August 2005, 8:55 for CD
Danny Elfman / Batman Returns OMPS

Used drive : PLEXTOR CD-R PREMIUM Adapter: 2 ID: 3
Read mode : Secure with C2, accurate stream, disable cache
Read offset correction : 0
Overread into Lead-In and Lead-Out : No

Used output format : Internal WAV Routines
44.100 Hz; 16 Bit; Stereo

Other options :
Fill up missing offset samples with silence : Yes
Delete leading and trailing silent blocks : No
Installed external ASPI interface

Range status and errors
Selected range
Filename Q:\sound track temp files\Batman Returns - Danny Elfman[vesperus].wav

Peak level 94.4 %
Range quality 100.0 %
CRC A5DD4CC6
Copy OK

No errors occured

End of status report
Год выпуска: 1993
Жанр: Soundtrack
Формат: FLAC (746kbps)
Треклист:
01. Overture (1:48)
02. Opening (0:57)
03. This Is Halloween (3:17)
04. Jack's Lament (3:14)
05. Doctor Finklestein / In the Forest (2:36)
06. What's This? (3:06)
07. Town Meeting Song (2:57)
08. Jack and Sally Montage (5:17)
09. Jack's Obsession (2:46)
10. Kidnap the Sandy Claws (3:03)
11. Making Christmas (3:58)
12. Nabbed (3:04)
13. Oogie Boogie's Song (3:17)
14. Sally's Song (1:48)
15. Christmas Eve Montage (4:44)
16. Poor Jack (2:31)
17. To the Rescue (3:38)
18. Finale / Reprise (2:44)
19. Closing (1:26)
20. End Title (5:06)
EAC extraction logfile from 12. November 2005, 20:52 for CD
Danny Elfman / Tim Burton's The Nightmare Before Christmas

Used drive : PLEXTOR DVDR PX-712A Adapter: 1 ID: 0
Read mode : Secure with NO C2, accurate stream, disable cache
Read offset correction : 30
Overread into Lead-In and Lead-Out : Yes

Used output format : Internal WAV Routines
44.100 Hz; 16 Bit; Stereo

Other options :
Fill up missing offset samples with silence : Yes
Delete leading and trailing silent blocks : No
Installed external ASPI interface

Range status and errors
Selected range
Filename J:\Danny Elfman - Nightmare Before Christmas - OST (1993)\Danny Elfman - Tim Burton's The Nightmare Before Christmas.wav

Peak level 95.3 %
Range quality 99.9 %
CRC 85985206
Copy OK

No errors occured

End of status report
Год выпуска: 1995
Жанр: Soundtrack
Формат: WavPack (745kbps)
Треклист:
01. Main Titles (4:10)
02. Suzie's Theme (1:44)
03. Busted (2:01)
04. Weepy Donuts (1:51)
05. Creepy Creepy (0:51)
06. Murder! (3:53)
07. Angry Suzie (0:37)
08. Finale (3:53)
09. Wasting Away - Mailbomb (3:04)
10. Nothing From Nothing - Billy Preston (2:37)
11. All By Myself - Eric Carmen (4:56)
12. Sweet Home Alabama - Lynyrd Skynyrd (3:38)
13. Wings of Desire - Strawpeople (4:52)
14. Season of the Witch - Donovan (4:55)
Exact Audio Copy V0.99 prebeta 3 from 28. July 2007

EAC extraction logfile from 15. April 2008, 17:24

Danny Elfman & VA / To Die For

Used drive : HL-DT-STDVDRRW GSA-H30L Adapter: 0 ID: 1

Read mode : Secure
Utilize accurate stream : Yes
Defeat audio cache : Yes
Make use of C2 pointers : No

Read offset correction : 102
Overread into Lead-In and Lead-Out : No
Fill up missing offset samples with silence : Yes
Delete leading and trailing silent blocks : No
Null samples used in CRC calculations : Yes
Used interface : Installed external ASPI interface

Used output format : User Defined Encoder
Selected bitrate : 1024 kBit/s
Quality : High
Add ID3 tag : No
Command line compressor : C:\Users\Rita & Renata\Desktop\Installers\Drivers\wavpack-4.41\wavpack.exe
Additional command line options : -w "Artist=%a" -w "Title=%t" -w "Album=%g" -w "Year=%y" -w "Track=%n" -w "Genre=%m" -h %s %d
Use compression offset : 102

TOC of the extracted CD

Track | Start | Length | Start sector | End sector
---------------------------------------------------------
1 | 0:00.00 | 4:09.70 | 0 | 18744
2 | 4:09.70 | 1:43.45 | 18745 | 26514
3 | 5:53.40 | 2:00.68 | 26515 | 35582
4 | 7:54.33 | 1:51.22 | 35583 | 43929
5 | 9:45.55 | 0:50.68 | 43930 | 47747
6 | 10:36.48 | 3:53.10 | 47748 | 65232
7 | 14:29.58 | 0:36.57 | 65233 | 67989
8 | 15:06.40 | 3:52.38 | 67990 | 85427
9 | 18:59.03 | 3:03.45 | 85428 | 99197
10 | 22:02.48 | 2:37.27 | 99198 | 110999
11 | 24:40.00 | 4:56.33 | 111000 | 133232
12 | 29:36.33 | 3:37.42 | 133233 | 149549
13 | 33:14.00 | 4:52.08 | 149550 | 171457
14 | 38:06.08 | 4:54.40 | 171458 | 193547

Range status and errors

Selected range

Filename C:\FLAC&APE\My Ripps\Danny Elfman\Danny Elfman & VA - To Die For.wav

Peak level 98.0 %
Range quality 100.0 %
Copy CRC DA7DB11C
Copy OK

No errors occurred

AccurateRip summary

Track 1 not present in database
Track 2 not present in database
Track 3 not present in database
Track 4 not present in database
Track 5 not present in database
Track 6 not present in database
Track 7 not present in database
Track 8 not present in database
Track 9 not present in database
Track 10 not present in database
Track 11 not present in database
Track 12 not present in database
Track 13 not present in database
Track 14 not present in database

None of the tracks are present in the AccurateRip database

End of status report
Год выпуска: 1996
Жанр: Soundtrack
Формат: WavPack (647kbps)
Треклист:
01. Main Title (2:28)
02. Hard Guys (2:39)
03. Cokie (2:24)
04. Dumped (1:17)
05. The Descent (6:38)
06. Tough News (2:40)
07. Hope? / Fey (4:24)
08. Elevator Madness (2:29)
09. Epilogue / End Credits (4:31)
EAC extraction logfile from 27. February 2008, 14:46 for CD
Danny Elfman / Extreme Measures

Used drive : PLEXTOR DVDR PX-750A Adapter: 1 ID: 1
Read mode : Secure with NO C2, accurate stream, disable cache
Read offset correction : 102
Overread into Lead-In and Lead-Out : No

Used output format : Internal WAV Routines
44.100 Hz; 16 Bit; Stereo
Use compression offset : 0

Other options :
Fill up missing offset samples with silence : Yes
Delete leading and trailing silent blocks : No
Installed external ASPI interface

Range status and errors
Selected range
Filename C:\Users\Admin\Desktop\Extreme Measures\Danny Elfman - Extreme Measures.wav

Peak level 96.9 %
Range quality 100.0 %
CRC 5C7CBFC3
Copy OK

No errors occured

End of status report
Год выпуска: 1996
Жанр: Soundtrack
Формат: WavPack (691kbps)
Треклист:
01. Sleeping Beauty (2:29)
02. Mission: Impossible Theme (1:03)
03. Red Handed (4:21)
04. Big Trouble (5:33)
05. Love Theme? (2:21)
06. Mole Hunt (3:02)
07. The Disc (1:54)
08. Max found (1:02)
09. Looking for ''Job'' (4:38)
10. Betrayal (2:56)
11. The Heist (5:47)
12. Uh-Oh! (1:29)
13. Biblical Revelation (1:34)
14. Phone Home (2:25)
15. Train Time (4:11)
16. Mйnage а Trois (2:55)
17. Zoom A (1:53)
18. Zoom B (2:54)
Exact Audio Copy V0.99 prebeta 4 from 23. January 2008

EAC extraction logfile from 3. February 2008, 12:08

Danny Elfman / Mission: Impossible

Used drive : SONY DVD-ROM DDU1613 Adapter: 0 ID: 1

Read mode : Secure
Utilize accurate stream : Yes
Defeat audio cache : Yes
Make use of C2 pointers : No

Read offset correction : 12
Overread into Lead-In and Lead-Out : No
Fill up missing offset samples with silence : Yes
Delete leading and trailing silent blocks : No
Null samples used in CRC calculations : Yes
Used interface : Installed external ASPI interface

Used output format : Internal WAV Routines
Sample format : 44.100 Hz; 16 Bit; Stereo

TOC of the extracted CD

Track | Start | Length | Start sector | End sector
---------------------------------------------------------
1 | 0:00.18 | 2:28.60 | 18 | 11177
2 | 2:29.03 | 1:02.62 | 11178 | 15889
3 | 3:31.65 | 4:21.13 | 15890 | 35477
4 | 7:53.03 | 5:33.10 | 35478 | 60462
5 | 13:26.13 | 2:21.15 | 60463 | 71052
6 | 15:47.28 | 3:02.15 | 71053 | 84717
7 | 18:49.43 | 1:54.32 | 84718 | 93299
8 | 20:44.00 | 1:02.33 | 93300 | 97982
9 | 21:46.33 | 4:38.37 | 97983 | 118869
10 | 26:24.70 | 2:56.05 | 118870 | 132074
11 | 29:21.00 | 5:46.60 | 132075 | 158084
12 | 35:07.60 | 1:28.50 | 158085 | 164734
13 | 36:36.35 | 1:33.40 | 164735 | 171749
14 | 38:10.00 | 2:25.15 | 171750 | 182639
15 | 40:35.15 | 4:11.08 | 182640 | 201472
16 | 44:46.23 | 2:55.07 | 201473 | 214604
17 | 47:41.30 | 1:53.18 | 214605 | 223097
18 | 49:34.48 | 2:54.05 | 223098 | 236152

Range status and errors

Selected range

Filename D:\Danny Elfman - Mission Impossible.wav

Peak level 95.9 %
Range quality 100.0 %
Copy CRC AE33BBAD
Copy OK

No errors occurred

AccurateRip summary

Track 1 cannot be verified as accurate (confidence 4) [F7085815], AccurateRip returned [58153F52]
Track 2 cannot be verified as accurate (confidence 4) [BA654005], AccurateRip returned [C62AA6BE]
Track 3 cannot be verified as accurate (confidence 4) [9C6E79F5], AccurateRip returned [B3D7F389]
Track 4 cannot be verified as accurate (confidence 4) [78A00C95], AccurateRip returned [45698A9F]
Track 5 cannot be verified as accurate (confidence 4) [A8857E8F], AccurateRip returned [C4CDC67B]
Track 6 cannot be verified as accurate (confidence 4) [36122D7B], AccurateRip returned [48CF5ADE]
Track 7 cannot be verified as accurate (confidence 4) [62212311], AccurateRip returned [C232BDEA]
Track 8 cannot be verified as accurate (confidence 4) [69B27DE7], AccurateRip returned [9E9DB103]
Track 9 cannot be verified as accurate (confidence 4) [A5A21B80], AccurateRip returned [4AAAABBA]
Track 10 cannot be verified as accurate (confidence 4) [D709EED9], AccurateRip returned [CB7F499B]
Track 11 cannot be verified as accurate (confidence 4) [64B7BD74], AccurateRip returned [93F11A8A]
Track 12 cannot be verified as accurate (confidence 4) [38753E43], AccurateRip returned [5B7255FD]
Track 13 cannot be verified as accurate (confidence 4) [8034D523], AccurateRip returned [10F80015]
Track 14 cannot be verified as accurate (confidence 4) [64FAC639], AccurateRip returned [A6BE3959]
Track 15 cannot be verified as accurate (confidence 4) [6B785FB2], AccurateRip returned [442828D6]
Track 16 cannot be verified as accurate (confidence 4) [2CB90DB2], AccurateRip returned [1B4252D1]
Track 17 cannot be verified as accurate (confidence 4) [EFBFA5F6], AccurateRip returned [A0E96731]
Track 18 cannot be verified as accurate (confidence 4) [8B4DAAE1], AccurateRip returned [86999ED7]

No tracks could be verified as accurate
You may have a different pressing from the one(s) in the database

End of status report
Год выпуска: 1997
Жанр: Soundtrack
Формат: Monkey's Audio (661kbps)
Треклист:
01. M.I.B. Main Theme (2:58)
02. D's Memories / Chase (3:57)
03. Edgar's Truck / A New Man (2:59)
04. Imports / Quiet Moment (2:21)
05. J Contemplates (1:18)
06. Headquarters (1:13)
07. The Suit (1:28)
08. Morgue Time (0:48)
09. Petit Mort (1:42)
10. K Reminisces (0:49)
11. Orion's Belt / Cat Stinger (2:18)
12. Noisy Cricket / Impending Trouble (2:07)
13. Sexy Morgue Babe (5:41)
14. Take Off / Crash (7:21)
15. Finale (3:03)
16. M.I.B. Closing Theme (2:39)
EAC extraction logfile from 15. September 2005, 23:34 for CD
Danny Elfman / Men in Black

Used drive : PLEXTOR CD-R PX-W4012A Adapter: 1 ID: 1
Read mode : Secure with C2, accurate stream, disable cache
Combined read/write offset correction : 0
Overread into Lead-In and Lead-Out : No

Used output format : Internal WAV Routines
44.100 Hz; 16 Bit; Stereo

Other options :
Fill up missing offset samples with silence : Yes
Delete leading and trailing silent blocks : No
Installed external ASPI interface

Range status and errors
Selected range
Filename D:\SF EAC Files\Men in Black.wav

Peak level 99.8 %
Range quality 100.0 %
CRC 11AE0FC6
Copy OK

No errors occured

End of status report
Год выпуска: 1998
Жанр: Soundtrack
Формат: Monkey's Audio (693kbps)
Треклист:
01. Walkin' (1:29)
02. Civil Theme (2:41)
03. The River (3:07)
04. And This ... (1:07)
05. First Landing (1:16)
06. Something to Prove (1:20)
07. Bills, Bills, Bills (1:00)
08. Water #1 (2:04)
09. Trial (2:45)
10. Walkin' Reprise (1:33)
11. Objections (2:19)
12. Why? (3:23)
13. Going Down (1:28)
14. 20 Bucks (1:48)
15. The Creep Up (0:57)
16. Off The Hook (1:19)
17. Harvard Club (1:07)
18. Water #2 (2:14)
19. Night Work (2:52)
20. The Letter (3:25)
21. At Last (1:30)
22. End Credit Suite (6:19)
Exact Audio Copy V0.99 prebeta 3 from 28. July 2007

EAC extraction logfile from 27. December 2007, 15:07

Danny Elfman / A Civil Action

Used drive : LITE-ON DVDRW SHW-1635S Adapter: 1 ID: 0

Read mode : Secure
Utilize accurate stream : Yes
Defeat audio cache : Yes
Make use of C2 pointers : No

Read offset correction : 6
Overread into Lead-In and Lead-Out : No
Fill up missing offset samples with silence : Yes
Delete leading and trailing silent blocks : No
Null samples used in CRC calculations : Yes
Used interface : Installed external ASPI interface

Used output format : Internal WAV Routines
Sample format : 44.100 Hz; 16 Bit; Stereo

TOC of the extracted CD

Track | Start | Length | Start sector | End sector
---------------------------------------------------------
1 | 0:00.32 | 1:28.70 | 32 | 6701
2 | 1:29.27 | 2:40.60 | 6702 | 18761
3 | 4:10.12 | 3:07.03 | 18762 | 32789
4 | 7:17.15 | 1:06.42 | 32790 | 37781
5 | 8:23.57 | 1:15.45 | 37782 | 43451
6 | 9:39.27 | 1:20.13 | 43452 | 49464
7 | 10:59.40 | 1:00.12 | 49465 | 53976
8 | 11:59.52 | 2:03.45 | 53977 | 63246
9 | 14:03.22 | 2:45.25 | 63247 | 75646
10 | 16:48.47 | 1:32.40 | 75647 | 82586
11 | 18:21.12 | 2:18.40 | 82587 | 92976
12 | 20:39.52 | 3:23.05 | 92977 | 108206
13 | 24:02.57 | 1:27.70 | 108207 | 114801
14 | 25:30.52 | 1:48.00 | 114802 | 122901
15 | 27:18.52 | 0:56.45 | 122902 | 127146
16 | 28:15.22 | 1:18.68 | 127147 | 133064
17 | 29:34.15 | 1:06.55 | 133065 | 138069
18 | 30:40.70 | 2:13.42 | 138070 | 148086
19 | 32:54.37 | 2:51.55 | 148087 | 160966
20 | 35:46.17 | 3:25.25 | 160967 | 176366
21 | 39:11.42 | 1:30.23 | 176367 | 183139
22 | 40:41.65 | 6:19.35 | 183140 | 211599

Range status and errors

Selected range

Filename D:\Danny Elfman - A Civil Action\A Civil Action.wav

Peak level 100.0 %
Range quality 100.0 %
Copy CRC DADFC9AE
Copy OK

No errors occurred

AccurateRip summary

Track 1 not present in database
Track 2 not present in database
Track 3 not present in database
Track 4 not present in database
Track 5 not present in database
Track 6 not present in database
Track 7 not present in database
Track 8 not present in database
Track 9 not present in database
Track 10 not present in database
Track 11 not present in database
Track 12 not present in database
Track 13 not present in database
Track 14 not present in database
Track 15 not present in database
Track 16 not present in database
Track 17 not present in database
Track 18 not present in database
Track 19 not present in database
Track 20 not present in database
Track 21 not present in database
Track 22 not present in database

None of the tracks are present in the AccurateRip database

End of status report
Год выпуска: 1998
Жанр: Soundtrack
Формат: Monkey's Audio (659kbps)
Треклист:
01. Introduction (4:20)
02. Main Titles (3:14)
03. Young Ichabod (1:24)
04. The Story... (4:33)
05. Mesbeth's Terrible Death (1:40)
06. Sweet Dreams (1:15)
07. A Gift (2:31)
08. Into The Woods / The Witch (3:36)
09. More Dreams (1:46)
10. The Tree Of Death (9:40)
11. Bad Dream / Tender Moment (3:38)
12. Evil Eye (3:47)
13. The Church Battle (3:36)
14. Love Lost (5:21)
15. The Windmill (6:22)
16. The Chase (3:17)
17. The Final Confrontation (4:21)
18. A New Day! (1:34)
19. End Credits (3:18)
Exact Audio Copy V0.99 prebeta 4 from 23. January 2008

EAC extraction logfile from 31. March 2008, 1:36

Danny Elfman / Sleepy Hollow

Used drive : TSSTcorpCD/DVDW SH-S183L Adapter: 1 ID: 0

Read mode : Secure
Utilize accurate stream : Yes
Defeat audio cache : Yes
Make use of C2 pointers : No

Read offset correction : 6
Overread into Lead-In and Lead-Out : No
Fill up missing offset samples with silence : Yes
Delete leading and trailing silent blocks : No
Null samples used in CRC calculations : Yes
Used interface : Native Win32 interface for Win NT & 2000

Used output format : Internal WAV Routines
Sample format : 44.100 Hz; 16 Bit; Stereo

TOC of the extracted CD

Track | Start | Length | Start sector | End sector
---------------------------------------------------------
1 | 0:00.00 | 4:19.74 | 0 | 19498
2 | 4:19.74 | 3:13.41 | 19499 | 34014
3 | 7:33.40 | 1:24.04 | 34015 | 40318
4 | 8:57.44 | 4:32.44 | 40319 | 60762
5 | 13:30.13 | 1:39.52 | 60763 | 68239
6 | 15:09.65 | 1:15.26 | 68240 | 73890
7 | 16:25.16 | 2:30.59 | 73891 | 85199
8 | 18:56.00 | 3:36.19 | 85200 | 101418
9 | 22:32.19 | 1:46.29 | 101419 | 109397
10 | 24:18.48 | 9:40.24 | 109398 | 152921
11 | 33:58.72 | 3:37.44 | 152922 | 169240
12 | 37:36.41 | 3:47.04 | 169241 | 186269
13 | 41:23.45 | 3:35.68 | 186270 | 202462
14 | 44:59.38 | 5:20.46 | 202463 | 226508
15 | 50:20.09 | 6:22.09 | 226509 | 255167
16 | 56:42.18 | 3:16.49 | 255168 | 269916
17 | 59:58.67 | 4:21.02 | 269917 | 289493
18 | 64:19.69 | 1:33.41 | 289494 | 296509
19 | 65:53.35 | 3:18.14 | 296510 | 311373

Range status and errors

Selected range

Filename D:\Music\Danny Elfman\Sleepy Hollow\Danny Elfman - Sleepy Hollow.wav

Peak level 100.0 %
Range quality 100.0 %
Copy CRC F9C7047C
Copy OK

No errors occurred

End of status report
Год выпуска: 1999
Жанр: Soundtrack
Формат: Monkey's Audio (615kbps)
Треклист:
01. Track01 (3:35)
02. Track02 (0:37)
03. Track03 (1:10)
04. Track04 (0:44)
05. Track05 (2:29)
06. Track06 (1:13)
07. Track07 (1:16)
08. Track08 (1:59)
09. Track09 (0:52)
10. Track10 (1:01)
11. Track11 (0:48)
12. Track12 (3:57)
13. Track13 (3:52)
14. Track14 (2:31)
15. Track15 (4:40)
16. Track16 (2:18)
17. Track17 (0:56)
18. Track18 (1:03)
19. Track19 (1:36)
20. Track20 (2:53)
21. Track21 (3:18)
22. Track22 (1:19)
23. Track23 (2:35)
24. Track24 (3:21)
25. Track25 (1:18)
26. Track26 (2:14)
27. Track27 (1:20)
28. Track28 (2:38)
29. Track29 (3:49)
30. Track30 (4:57)
31. Track31 (1:30)
32. Track32 (1:39)
33. Track33 (8:44)
Journal d'extraction EAC depuis 23. Aoыt 2005, 18:26 pour CD
Danny Elfman / Good Will Hunting / Black Beauty

Lecteur utilisй : PLEXTOR DVDR PX-716A Adapter: 1 ID: 1
Mode lecture : Sйcurisй SANS C2, Flux prйcis, Cache dйsactivй
Correction Offset combinй lecture/йcriture : 0
Lecture йtendue en Lead-In et Lead-Out : Non

Format de sortie utilisй : Routines WAV interne
44.100 Hz; 16 Bit; Stйrйo

Autres options :
Remplacer les samples manquants par du silence : Oui
Effacer les blocs silencieux situйs en dйbut et fin : Non
Interface ASPI externe installйe

Propriйtйs Etats et Erreurs
Gammes sйlectionnйes
Nom fichier L:\Documents and Settings\PROPRIETAIRE\Mes documents\My Music\Partage\Danny.Elfman.-.Good.Will.Hunting.&.Black.Beauty.BOOTLEG.[eac.ape].HQShare.net\GoodWillHunting.wav

Niveau Max 99.0 %
qualitй intervalle 100.0 %
CRC A05E0A63
Copie Ok

Pas d'erreur apparue

Fin du rapport d'йtat
Год выпуска: 2002
Жанр: Soundtrack
Формат: Monkey's Audio (823kbps)
Треклист:
01. Danny Elfman / Worm Lounge #1 (Worms In Black) (5:20)
02. Danny Elfman / Logo (0:23)
03. Danny Elfman / Titles (5:01)
04. Danny Elfman / Big Jeff (2:25)
05. Headquarters (1:52)
06. Danny Elfman / Chop-chop (2:00)
07. Danny Elfman / Heart Thump (1:52)
08. Danny Elfman / Customs (0:51)
09. Danny Elfman / Hunting for K (1:41)
10. Danny Elfman / J Nabbed \ K's Back (2:20)
11. Danny Elfman / The Real Story (1:42)
12. Danny Elfman / Sleuthing (2:21)
13. Danny Elfman / The Defense Begins (2:48)
14. Danny Elfman / The Chase (3:23)
15. Danny Elfman / The Light (5:44)
16. Danny Elfman / The Finale (0:19)
17. Danny Elfman / Worm Lounge #2 (3:09)
18. Danny Elfman / Titles Revisited (2:57)
19. Tim Blaney / I Will Survive (3:03)
20. Will Smith Introducing Trв- Knox / Black Suits Comin' (Nod Ya Head) (4:21)
EAC extraction logfile from 2. August 2005, 10:45 for CD
Men In Black II / Men In Black II Music From The Motion Picture

Used drive : PLEXTOR CD-R PREMIUM Adapter: 2 ID: 3
Read mode : Secure with C2, accurate stream, disable cache
Read offset correction : 0
Overread into Lead-In and Lead-Out : No

Used output format : Internal WAV Routines
44.100 Hz; 16 Bit; Stereo

Other options :
Fill up missing offset samples with silence : Yes
Delete leading and trailing silent blocks : No
Installed external ASPI interface

Range status and errors
Selected range
Filename J:\music temp\MIB 2 - Danny Elfman [vesperus].wav

Peak level 97.1 %
Range quality 100.0 %
CRC 0DB258A6
Copy OK

No errors occured

End of status report
Год выпуска: 2002
Жанр: Soundtrack
Формат: Monkey's Audio (734kbps)
Треклист:
01. Logos (0:50)
02. The Revelation (2:41)
03. Main Titles (3:00)
04. The Cell (3:27)
05. The Old Mansion (4:45)
06. The Address (1:42)
07. We're Different (1:25)
08. The Note (2:47)
09. Enter the Dragon (5:52)
10. Threats (2:23)
11. Tiger Balls (1:32)
12. Love on A Couch (5:09)
13. Devouring the Dragon (3:43)
14. The Fire (4:34)
15. The Book (0:34)
16. He's Back! (6:08)
17. End Credits Suite (6:44)
EAC extraction logfile from 11. July 2006, 0:10 for CD
Danny Elfman / Red Dragon

Used drive : BENQ DVD DD DW1640 Adapter: 0 ID: 0
Read mode : Secure with NO C2, accurate stream, disable cache
Read offset correction : 618
Overread into Lead-In and Lead-Out : No

Used output format : C:\Program Files\EAC\wapet.exe (User Defined Encoder)
192 kBit/s
Additional command line options : %d -t "Artist=%a" -t "Title=%t" -t "Album=%g" -t "Year=%y" -t "Track=%n" -t "Genre=%m" "C:\Program Files\Monkey's Audio\MAC.exe" %s %d -c2000

Other options :
Fill up missing offset samples with silence : Yes
Delete leading and trailing silent blocks : No
Installed external ASPI interface

Range status and errors
Selected range
Filename C:\Downloads\0000\Danny Elfman - Red Dragon\Danny Elfman - Red Dragon.wav

Peak level 97.4 %
Range quality 100.0 %
CRC 0F046585
Copy OK

No errors occured

End of status report
Год выпуска: 2002
Жанр: Soundtrack
Формат: WavPack (814kbps)
Треклист:
01. Hero (3:21)
02. Main Title (3:29)
03. Transformations (3:31)
04. Costume Montage (1:19)
05. Revenge (6:13)
06. First Web (0:56)
07. Something's Different (1:17)
08. City Montage (1:50)
09. Alone (1:38)
10. Parade Attack (3:54)
11. Specter of the Goblin (3:47)
12. Revelation (2:33)
13. Getting Through (2:05)
14. Final Confrontation (7:20)
15. Farewell (3:12)
16. End Credits (1:56)
EAC extraction logfile from 7. July 2007, 14:45 for CD
Danny Elfman / Spider-Man Score Academy Promo

Used drive : PLEXTOR DVDR PX-760A Adapter: 1 ID: 0
Read mode : Secure with NO C2, accurate stream, disable cache
Read offset correction : 30
Overread into Lead-In and Lead-Out : No

Used output format : Internal WAV Routines
44.100 Hz; 16 Bit; Stereo

Other options :
Fill up missing offset samples with silence : Yes
Delete leading and trailing silent blocks : No
Installed external ASPI interface

Range status and errors
Selected range
Filename D:\HQShare.Net Releases\Danny Elfman - Spiderman (Academy Promo)\Listen\Danny Elfman - Spider-Man Score Academy Promo.wav

Peak level 99.7 %
Range quality 99.9 %
CRC B4FE5AB2
Copy OK

No errors occured

End of status report
Год выпуска: 2003
Жанр: Soundtrack
Формат: Monkey's Audio (703kbps)
Треклист:
01. Main Titles (4:37)
02. Prologue (4:39)
03. Betty's Dream (2:15)
04. Bruce's Memories (2:46)
05. Captured (3:41)
06. Dad's Visit (2:15)
07. Hulk Out! (4:00)
08. Father Knows Best (3:35)
09. ...Making Me Angry (4:03)
10. Gentle Giant (1:02)
11. Hounds of Hell (3:47)
12. The Truth Revealed (4:20)
13. Hulk's Freedom (2:36)
14. A Man Again (7:49)
15. The Lake Battle (4:32)
16. The Aftermath (0:56)
17. The Phone Call (1:35)
18. End Credits (1:13)
19. Set Me Free (4:10)
EAC extraction logfile from 6. February 2006, 22:33 for CD
Danny Elfman / Hulk

Used drive : PIONEER DVD-ROM DVD-121 Adapter: 1 ID: 3
Read mode : Secure with NO C2, accurate stream, disable cache
Read offset correction : 0
Overread into Lead-In and Lead-Out : No

Used output format : C:\Program Files\Exact Audio Copy V0.95 prebeta 5\MAC.exe (Monkey's Audio Lossless Encoder)
Normal Lossless Compression

Other options :
Fill up missing offset samples with silence : Yes
Delete leading and trailing silent blocks : No
Installed external ASPI interface

Range status and errors
Selected range
Filename E:\Hulk\CDImage.wav

Peak level 96.5 %
Range quality 100.0 %
CRC 81D9523C
Copy OK

No errors occured

End of status report
Год выпуска: 2005
Жанр: Soundtrack
Формат: Monkey's Audio (775kbps)
Треклист:
01. Wonka's Welcome Song (1:01)
02. Augustus Gloop (3:10)
03. Violet Beauregarde (2:08)
04. Veruca Salt (2:13)
05. Mike Teavee (1:32)
06. Main Titles (5:01)
07. Wonka's First Shop (1:42)
08. The Indian Palace (3:16)
09. Wheels In Motion (3:18)
10. Charlie's Birthday Bar (1:53)
11. The Golden Ticket/Factory (3:04)
12. Chocolate Explorers (2:14)
13. Loompa Land (1:42)
14. The Boat Arrives (1:16)
15. The River Cruise (1:54)
16. First Candy (1:22)
17. Up And Out (3:11)
18. The River Cruise - Part 2 (1:57)
19. Charlie Declines (1:32)
20. Finale (3:47)
21. End Credit Suite (7:02)
EAC extraction logfile from 12. October 2005, 17:14 for CD
Danny Elfman / Charlie And The Chocolate Factory

Used drive : _NEC DVD_RW ND-1300A Adapter: 1 ID: 1
Read mode : Secure with NO C2, accurate stream, disable cache
Read offset correction : 0
Overread into Lead-In and Lead-Out : No

Used output format : Internal WAV Routines
44.100 Hz; 16 Bit; Stereo

Other options :
Fill up missing offset samples with silence : Yes
Delete leading and trailing silent blocks : No
Installed external ASPI interface

Range status and errors
Selected range
Filename C:\Lanzamientos\Charlie And The Chocolate Factory.wav

Peak level 96.6 %
Range quality 100.0 %
CRC 341C6377
Copy OK

No errors occured

End of status report
Год выпуска: 2005
Жанр: Soundtrack
Формат: WavPack (689kbps)
Треклист:
01. Main Titles (2:06)
02. According To Plan (3:45)
03. Victor's Piano Solo (1:18)
04. Into The Forest (4:36)
05. Remains Of The Day (3:27)
06. Casting A Spell (1:26)
07. Moon Dance (1:28)
08. Victor's Deception (4:00)
09. Tears To Shed (2:46)
10. Victoria's Escape (2:31)
11. The Piano Duet (1:53)
12. New Arrival (0:42)
13. Victoria's Wedding (3:15)
14. The Wedding Song (3:01)
15. The Party Arrives (3:21)
16. Victor's Wedding (2:09)
17. Barkis's Bummer (2:07)
18. The Finale (2:36)
19. End Credits Part 1 (1:50)
20. End Credits Part 2 (2:33)
21. Ball & Socket Lounge Music #1 (Band Version) (2:16)
22. Remains Of The Day (Combo Lounge Version) (3:07)
23. Ball & Socket Lounge Music #2 (1:11)
24. Ball & Socket Lounge Music #1 (Combo Version) (2:14)
EAC extraction logfile from 9. January 2007, 19:17 for CD
Danny Elfman / Corpse Bride

Used drive : PIONEER DVD-RW DVR-109 Adapter: 1 ID: 1
Read mode : Secure with NO C2, accurate stream, disable cache
Read offset correction : 48
Overread into Lead-In and Lead-Out : No

Used output format : Internal WAV Routines
44.100 Hz; 16 Bit; Stereo

Other options :
Fill up missing offset samples with silence : Yes
Delete leading and trailing silent blocks : No
Installed external ASPI interface

Range status and errors
Selected range
Filename C:\Lanzamientos\Corpse Bride.wav

Peak level 91.2 %
Range quality 100.0 %
CRC 28F6FFE5
Copy OK

No errors occured

End of status report
Год выпуска: 2006
Жанр: Score
Формат: Monkey's Audio (684kbps)
Треклист:
01. Main Title (2:12)
02. The Introduction (1:27)
03. Lullaby/Escape (Perf. by Dakota Fanning) (4:05)
04. Introducing Charlotte (5:53)
05. In The Mud (1:00)
06. Templeton (2:29)
07. The Plan Begins (2:58)
08. ''Some Pig'' (1:30)
09. The Word Spreads (2:56)
10. The Fall Montage (0:49)
11. The Dump (1:50)
12. ''Radiant'' (1:44)
13. The Big Day (0:54)
14. ''Humble'' (2:52)
15. ''Terrific' (1:24)
16. Farewell Charlotte (1:11)
17. Wilbur's Homecoming (8:59)
18. Ordinary Miracle (Perf. by Sarah Mclachlan) (3:04)
EAC extraction logfile from 30. December 2006, 18:17 for CD
Danny Elfman / Charlotte's Web

Used drive : HL-DT-STDVDRAM GSA-4167B Adapter: 0 ID: 0
Read mode : Secure with NO C2, accurate stream, disable cache
Read offset correction : 667
Overread into Lead-In and Lead-Out : No

Used output format : Internal WAV Routines
44.100 Hz; 16 Bit; Stereo

Other options :
Fill up missing offset samples with silence : Yes
Delete leading and trailing silent blocks : No
Installed external ASPI interface

Range status and errors
Selected range
Filename D:\HQ ShareNet\Charlotte's Web.wav

Peak level 95.4 %
Range quality 99.9 %
CRC 12D6428C
Copy OK

No errors occured

End of status report
Год выпуска: 2007
Жанр: Soundtrack
Формат: WavPack (720kbps)
Треклист:
01. The Kingdom-Titles (4:30)
02. Waiting (2:20)
03. Attack On The Compound (2:44)
04. The Detonator (1:57)
05. The Killing Room/Trouble Coming (2:02)
06. To The Prince's (1:10)
07. Digging Deep (1:18)
08. Starting To Click/Saving Leavitt (4:55)
09. Friendship (3:50)
10. The Chase (4:49)
11. The Sales Pitch (2:12)
12. The Marble (1:08)
13. Finale (6:50)
Exact Audio Copy V0.99 prebeta 3 from 28. July 2007

EAC extraction logfile from 24. December 2007, 19:03

Danny Elfman / The Kingdom

Used drive : PLEXTOR DVDR PX-760A Adapter: 1 ID: 0

Read mode : Secure
Utilize accurate stream : Yes
Defeat audio cache : Yes
Make use of C2 pointers : No

Read offset correction : 30
Overread into Lead-In and Lead-Out : Yes
Fill up missing offset samples with silence : Yes
Delete leading and trailing silent blocks : No
Null samples used in CRC calculations : Yes
Used interface : Installed external ASPI interface

Used output format : Internal WAV Routines
Sample format : 44.100 Hz; 16 Bit; Stereo

TOC of the extracted CD

Track | Start | Length | Start sector | End sector
---------------------------------------------------------
1 | 0:00.00 | 4:29.56 | 0 | 20230
2 | 4:29.56 | 2:19.61 | 20231 | 30716
3 | 6:49.42 | 2:43.45 | 30717 | 42986
4 | 9:33.12 | 1:57.31 | 42987 | 51792
5 | 11:30.43 | 2:01.45 | 51793 | 60912
6 | 13:32.13 | 1:09.44 | 60913 | 66131
7 | 14:41.57 | 1:17.54 | 66132 | 71960
8 | 15:59.36 | 4:54.69 | 71961 | 94079
9 | 20:54.30 | 3:49.42 | 94080 | 111296
10 | 24:43.72 | 4:48.56 | 111297 | 132952
11 | 29:32.53 | 2:12.10 | 132953 | 142862
12 | 31:44.63 | 1:08.10 | 142863 | 147972
13 | 32:52.73 | 6:50.18 | 147973 | 178740

Range status and errors

Selected range

Filename E:\EAC\Danny Elfman - The Kingdom.wav

Peak level 95.4 %
Range quality 99.9 %
Copy CRC 4BFC9BB4
Copy OK

No errors occurred

End of status report
Год выпуска: 2008
Жанр: Soundtrack
Формат: WavPack (720kbps)
Треклист:
01. Introduction (3:37)
02. Titles (1:18)
03. Training (1:50)
04. The Auction House (2:28)
05. Hallway Cruise (1:35)
06. Where Fairies Dwell (4:17)
07. Teleplasty (1:21)
08. Mein Herring (1:05)
09. Father And Son (6:02)
10. A Link (1:29)
11. A Troll Market (1:21)
12. Market Troubles (3:41)
13. A Big Decision (1:10)
14. The Last Elemental (4:11)
15. The Spear (1:47)
16. A Dilemma (2:55)
17. Doorway (3:35)
18. A Choice (3:58)
19. In The Army Chamber (5:47)
20. Finale (6:06)
Exact Audio Copy V0.99 prebeta 4 from 23. January 2008

EAC extraction logfile from 23. July 2008, 18:31

Danny Elfman / Hellboy II - The Golden Army

Used drive : PLEXTOR CD-R PREMIUM Adapter: 3 ID: 1

Read mode : Secure
Utilize accurate stream : Yes
Defeat audio cache : Yes
Make use of C2 pointers : No

Read offset correction : 30
Overread into Lead-In and Lead-Out : Yes
Fill up missing offset samples with silence : Yes
Delete leading and trailing silent blocks : No
Null samples used in CRC calculations : Yes
Used interface : Installed external ASPI interface

Used output format : Internal WAV Routines
Sample format : 44.100 Hz; 16 Bit; Stereo

TOC of the extracted CD

Track | Start | Length | Start sector | End sector
---------------------------------------------------------
1 | 0:00.00 | 3:37.37 | 0 | 16311
2 | 3:37.37 | 1:18.23 | 16312 | 22184
3 | 4:55.60 | 1:49.50 | 22185 | 30409
4 | 6:45.35 | 2:27.70 | 30410 | 41504
5 | 9:13.30 | 1:35.10 | 41505 | 48639
6 | 10:48.40 | 4:16.61 | 48640 | 67900
7 | 15:05.26 | 1:21.06 | 67901 | 73981
8 | 16:26.32 | 1:05.10 | 73982 | 78866
9 | 17:31.42 | 6:01.60 | 78867 | 106001
10 | 23:33.27 | 1:29.37 | 106002 | 112713
11 | 25:02.64 | 1:21.05 | 112714 | 118793
12 | 26:23.69 | 3:40.73 | 118794 | 135366
13 | 30:04.67 | 1:09.62 | 135367 | 140603
14 | 31:14.54 | 4:11.14 | 140604 | 159442
15 | 35:25.68 | 1:47.02 | 159443 | 167469
16 | 37:12.70 | 2:55.28 | 167470 | 180622
17 | 40:08.23 | 3:35.25 | 180623 | 196772
18 | 43:43.48 | 3:57.74 | 196773 | 214621
19 | 47:41.47 | 5:46.71 | 214622 | 240642
20 | 53:28.43 | 6:06.04 | 240643 | 268096

Range status and errors

Selected range

Filename F:\~~##AUDIO##~~\Danny Elfman - Hellboy II - The Golden Army.wav

Peak level 98.8 %
Range quality 100.0 %
Test CRC 1395B957
Copy CRC 1395B957
Copy OK

No errors occurred

End of status report
Год выпуска: 2008
Жанр: Soundtrack
Формат: Monkey's Audio (764kbps)
Треклист:
01. The Little Things (3:27)
02. Success Montage (3:32)
03. Fraternity Suite (3:29)
04. Wesley's Office Life (5:16)
05. The Scheme (1:45)
06. Fox In Control (2:17)
07. Welcome To The Fraternity (4:29)
08. Fox's Story (3:30)
09. Exterminator Beat (2:52)
10. Rats (3:29)
11. The Train (3:59)
12. Revenge (4:33)
13. Fox's Decision (2:30)
14. Breaking The Code (1:22)
15. Fate (1:46)
Exact Audio Copy V0.99 prebeta 4 from 23. January 2008

EAC extraction logfile from 30. June 2008, 22:08

Danny Elfman / Wanted

Used drive : HL-DT-STCD-RW GCE-8523B Adapter: 1 ID: 1

Read mode : Secure
Utilize accurate stream : Yes
Defeat audio cache : Yes
Make use of C2 pointers : No

Read offset correction : 6
Overread into Lead-In and Lead-Out : No
Fill up missing offset samples with silence : Yes
Delete leading and trailing silent blocks : No
Null samples used in CRC calculations : Yes
Used interface : Installed external ASPI interface

Used output format : Internal WAV Routines
Sample format : 44.100 Hz; 16 Bit; Stereo

TOC of the extracted CD

Track | Start | Length | Start sector | End sector
---------------------------------------------------------
1 | 0:00.00 | 3:26.62 | 0 | 15511
2 | 3:26.62 | 3:32.08 | 15512 | 31419
3 | 6:58.70 | 3:28.40 | 31420 | 47059
4 | 10:27.35 | 5:15.38 | 47060 | 70722
5 | 15:42.73 | 1:44.60 | 70723 | 78582
6 | 17:27.58 | 2:16.63 | 78583 | 88845
7 | 19:44.46 | 4:28.43 | 88846 | 108988
8 | 24:13.14 | 3:29.49 | 108989 | 124712
9 | 27:42.63 | 2:52.15 | 124713 | 137627
10 | 30:35.03 | 3:28.57 | 137628 | 153284
11 | 34:03.60 | 3:59.02 | 153285 | 171211
12 | 38:02.62 | 4:33.06 | 171212 | 191692
13 | 42:35.68 | 2:29.62 | 191693 | 202929
14 | 45:05.55 | 1:21.65 | 202930 | 209069
15 | 46:27.45 | 1:46.22 | 209070 | 217041

Range status and errors

Selected range

Filename C:\Documents and Settings\Ricardo\Mis documentos\Mi mъsica\Danny Elfman - Wanted.wav

Peak level 98.8 %
Range quality 100.0 %
Copy CRC 9ED50C25
Copy OK

No errors occurred

End of status report


Трекер:  [ 07-Июл-2011 23:32 ]

  

Скачать .torrent

Размер .torrent файла 45 KB


Размер: 5.92 GB
Хэш (hash) релиза: 847702f16fcfc2f87ee0f6d543b504a9416e6787

Торренты, похожие на Danny Elfman скачать торрент

Форум Название Автор Размер S L Добавлен
Саундтреки к фильмам и мультфильмам (lossless) ·· (Score) City of Prague Philharmonic Orchestra под управлением Nic Raine (The Film Music of Danny Elfman) (Danny Elfman) - 2008, FLAC (tracks+.cue), lossless Galfimbul 302533665289 MB 0 0 1447463708

04:15

14-Ноя-15

Саундтреки к фильмам и мультфильмам (lossless) ·· (Score) Бэтмeн / Batman // Бэтмен возвращается / Batman Returns [The Danny Elfman Batman Collection, 4 CD] (by Danny Elfman) - 2014 (1989, 1992) [FLAC (tracks+.cue) lossless Galfimbul 18609188131.73 GB 0 0 1434475255

20:20

16-Июн-15

Саундтреки к фильмам и мультфильмам (lossless) ·· (Score) Сфера / The Circle (by Danny Elfman) - 2017, FLAC (tracks+.cue) lossless Galfimbul 212220255202 MB 0 0 1496488160

14:09

3-Июн-17

Саундтреки к фильмам и мультфильмам (lossless) ·· (Score) Марс атакует! / Mars Attacks! (Limited Edition) (by Danny Elfman) - 2009 (1996), FLAC (tracks+.cue) lossless Galfimbul 402107205383 MB 0 0 1496339962

20:59

1-Июн-17

Саундтреки к фильмам и мультфильмам (lossless) ·· (Score) Харви Милк / Milk — Danny Elfman & Various — 2008, FLAC (tracks+.cue), lossless Galfimbul 342166480326 MB 0 0 1495449185

13:33

22-Май-17

Саундтреки к фильмам и мультфильмам (mp3) ·· (Score) Сфера / The Circle (Danny Elfman) - 2017, MP3, 320 kbps Galfimbul 9924439695 MB 0 0 1493332941

01:42

28-Апр-17

Саундтреки к фильмам и мультфильмам (mp3) ·· (Score) Тюльпанная лихорадка / Tulip Fever (Danny Elfman) - 2017, MP3, 320 kbps Galfimbul 10329136899 MB 0 0 1489171438

21:43

10-Мар-17

Саундтреки к фильмам и мультфильмам (lossless) ·· (Score) Тюльпанная лихорадка / Tulip Fever (by Danny Elfman) - 2016, FLAC (tracks+.cue) lossless Galfimbul 211815874202 MB 0 0 1488561924

20:25

3-Мар-17

Саундтреки к фильмам и мультфильмам (lossless) ·· (Score) Сомния / Before I Wake (by The Newton Brothers & Danny Elfman) - 2016, FLAC (tracks+.cue) lossless Galfimbul 304383652290 MB 0 0 1488466334

17:52

2-Мар-17

Саундтреки к фильмам и мультфильмам (lossless) ·· (Score) На пятьдесят оттенков темнее / Fifty Shades Darker (by Danny Elfman) - 2017, FLAC (tracks+.cue) lossless Galfimbul 201182337192 MB 0 0 1488216575

20:29

27-Фев-17

Саундтреки к фильмам и мультфильмам (mp3) ·· (Score) На пятьдесят оттенков темнее / Fifty Shades Darker (Danny Elfman) - 2017, MP3, 320 kbps Galfimbul 10261037298 MB 0 0 1487351619

20:13

17-Фев-17

Саундтреки к фильмам и мультфильмам (lossless) ·· (Score) Девушка в поезде / The Girl on the Train (by Danny Elfman) - 2016, FLAC (tracks+.cue), lossless Galfimbul 269742688257 MB 0 0 1476125578

21:52

10-Окт-16

Саундтреки к фильмам и мультфильмам (mp3) ·· (Score) Девушка в поезде / The Girl on the Train (by Danny Elfman) - 2016, MP3 (tracks) 320 kbps Galfimbul 169330161161 MB 0 0 1476125531

21:52

10-Окт-16

Саундтреки к фильмам и мультфильмам (lossless) ·· (Score) Алиса в Зазеркалье / Alice Through the Looking Glass (by Danny Elfman) - 2016, FLAC (tracks+.cue), lossless Galfimbul 444826477424 MB 0 0 1466192350

22:39

17-Июн-16

Саундтреки к фильмам и мультфильмам (lossless) ·· (Score) Алиса в Зазеркалье / Alice Through the Looking Glass (by Danny Elfman) - 2016, FLAC (tracks+.cue), lossless Galfimbul 409902318391 MB 0 0 1464447152

17:52

28-Май-16

Саундтреки к фильмам и мультфильмам (lossless) ·· (Score) Алиса в Зазеркалье / Alice Through the Looking Glass (Danny Elfman) {WEB} - 2016, FLAC (tracks), lossless Galfimbul 442724030422 MB 0 0 1464425528

11:52

28-Май-16

Саундтреки к фильмам и мультфильмам (mp3) ·· (Score) Алиса в Зазеркалье / Alice Through the Looking Glass (Danny Elfman) - 2016, MP3, 320 kbps Galfimbul 217223634207 MB 2 0 1464425488

11:51

28-Май-16

Саундтреки к фильмам и мультфильмам (mp3) ·· (Score) Эдвард руки-ножницы / Edward Scissorhands (Expanded) (by Danny Elfman) - 2015 (1990), MP3 (tracks) 320 kbps Galfimbul 205309706196 MB 0 0 1452631240

23:40

12-Янв-16

Саундтреки к фильмам и мультфильмам (lossless) ·· (Score) Эдвард руки-ножницы / Edward Scissorhands (Expanded) (by Danny Elfman) - 2015 (1990), FLAC (tracks+.cue), lossless Galfimbul 450747085430 MB 0 0 1452629359

23:09

12-Янв-16

Саундтреки к фильмам и мультфильмам (lossless) ·· (Score) Ужастики / Goosebumps (by Danny Elfman) - 2015, FLAC (image+.cue), lossless Galfimbul 330648275315 MB 0 0 1446655399

19:43

4-Ноя-15

Еще никто не оставлял запись к записи скачать торрент Danny Elfman . Будь первым!

!Обратная связь