Скачать через торрент музыку Отчаянные домохозяйки Desperate Housewives - 2006 бесплатно без регистрации torrent

Если у вас наблюдаются проблемы со скриншотами, переходом по ссылками, скачиванием торрентов - проблемы в блокировщике рекламы AdBlock. #хорошегоДня!


Статистика раздачи
Размер:  349 MB   |    Зарегистрирован:  6 лет 5 месяцев   |    .torrent скачан:  40 раз   |   
Раздают:  1  
   
Загрузка...
 
Автор Сообщение

Galfimbul

avatar Galfimbul


Отчаянные домохозяйки / Desperate Housewives

Жанр: Soundtrack || Год выпуска диска: 2006 || Производитель диска: USA || Аудио кодек: FLAC || Тип рипа: tracks+.cue || Битрейт аудио: lossless
Продолжительность: 00:50:05 || Источник: what.cd

01 - Brenda Strong - Mary Alice (Dialog) (00:48)
02 - Shedaisy - God Bless The American Housewife (03:44)
03 - Nicollette Sheridan - Edie (Dialog) (00:04)
04 - Shania Twain - Shoes (03:55)
05 - Anna Nalick - Band Of Gold (03:12)
06 - Felicity Huffman - Lynette (Dialog) (00:14)
07 - Liz Phair - Mother's Little Helper (03:03)
08 - Indigo Girls - Mrs. Robinson (03:47)
09 - Martina Mcbride - Harper Vally Pta (03:26)
10 - Marcia Cross - Bree (Dialog) (00:06)
11 - Leann Rimes - We're Running Out Of Time (04:07)
12 - Joss Stone - Treat Me Right (I'm Yours For Life) (04:02)
13 - Sara Evans - One's On The Way (03:23)
14 - Eva Longoria - Gabrielle (Dialog) (00:04)
15 - Macy Gray - Boom Boom (02:41)
16 - Gloria Estefan - Young Hearts Run Free (03:46)
17 - Teri Hatcher - Susan (Dialog) (00:07)
18 - Idina Menzel - Damsel In Distress (03:09)
19 - K.D. Lang - Dream Of The Everyday Housewife (03:54)
20 - Brenda Strong - Mary Alice (Dialog) (00:12)
21 - Danny Elfman, Marc Cherry - Desperate Housewives Theme / Wisteria Lane (02:23)
 
Exact Audio Copy V0.99 prebeta 5 from 4. May 2009

EAC extraction logfile from 13. June 2010, 21:03

Various Artists / Desperate Housewives (Original Soundtrack)

Used drive : Optiarc BD ROM BC-5500S Adapter: 2 ID: 0

Read mode : SecureUtilize accurate stream : YesDefeat audio cache : YesMake use of C2 pointers : No

Read offset correction : 48Overread into Lead-In and Lead-Out : NoFill up missing offset samples with silence : YesDelete leading and trailing silent blocks : NoNull samples used in CRC calculations : YesUsed interface : Native Win32 interface for Win NT & 2000Gap handling : Appended to previous track

Used output format : User Defined EncoderSelected bitrate : 1024 kBit/sQuality : HighAdd ID3 tag : NoCommand line compressor : C:\Program Files (x86)\Exact Audio Copy\Flac\flac.exeAdditional command line options : -V -8 -T "artist=%a" -T "title=%t" -T "album=%g" -T "date=%y" -T "tracknumber=%n" -T "genre=%m" %s

TOC of the extracted CD

Track | Start | Length | Start sector | End sector --------------------------------------------------------- 1 | 0:00.00 | 0:48.25 | 0 | 3624 2 | 0:48.25 | 3:43.68 | 3625 | 20417 3 | 4:32.18 | 0:04.04 | 20418 | 20721 4 | 4:36.22 | 3:55.16 | 20722 | 38362 5 | 8:31.38 | 3:11.50 | 38363 | 52737 6 | 11:43.13 | 0:13.43 | 52738 | 53755 7 | 11:56.56 | 3:02.39 | 53756 | 67444 8 | 14:59.20 | 3:46.74 | 67445 | 84468 9 | 18:46.19 | 3:26.01 | 84469 | 99919 10 | 22:12.20 | 0:06.19 | 99920 | 100388 11 | 22:18.39 | 4:07.36 | 100389 | 118949 12 | 26:26.00 | 4:01.59 | 118950 | 137083 13 | 30:27.59 | 3:22.54 | 137084 | 152287 14 | 33:50.38 | 0:04.02 | 152288 | 152589 15 | 33:54.40 | 2:40.61 | 152590 | 164650 16 | 36:35.26 | 3:45.57 | 164651 | 181582 17 | 40:21.08 | 0:06.56 | 181583 | 182088 18 | 40:27.64 | 3:09.04 | 182089 | 196267 19 | 43:36.68 | 3:53.49 | 196268 | 213791 20 | 47:30.42 | 0:12.14 | 213792 | 214705 21 | 47:42.56 | 2:22.45 | 214706 | 225400 22 | 52:37.26 | 21:20.49 | 236801 | 332849

Track 1

Filename M:\Zik Flac\VA - Music From Desperate Housewives (2005, FLAC)\01. Brenda Strong - Mary Alice (Dialog).wav

Pre-gap length 0:00:02.00

Peak level 99.8 % Track quality 100.0 % Test CRC 50982F26 Copy CRC 50982F26 Track not present in AccurateRip database Copy OK

Track 2

Filename M:\Zik Flac\VA - Music From Desperate Housewives (2005, FLAC)\02. SHeDAISY - God Bless The American Housewife.wav

Peak level 96.4 % Track quality 100.0 % Test CRC 2F73647B Copy CRC 2F73647B Track not present in AccurateRip database Copy OK

Track 3

Filename M:\Zik Flac\VA - Music From Desperate Housewives (2005, FLAC)\03. Nicollette Sheridan - Edie (Dialog).wav

Peak level 87.1 % Track quality 100.0 % Test CRC 26E23FFF Copy CRC 26E23FFF Track not present in AccurateRip database Copy OK

Track 4

Filename M:\Zik Flac\VA - Music From Desperate Housewives (2005, FLAC)\04. Shania Twain - Shoes.wav

Peak level 99.8 % Track quality 100.0 % Test CRC A3F144C7 Copy CRC A3F144C7 Track not present in AccurateRip database Copy OK

Track 5

Filename M:\Zik Flac\VA - Music From Desperate Housewives (2005, FLAC)\05. Anna Nalick - Band Of Gold.wav

Peak level 99.8 % Track quality 100.0 % Test CRC E09B7038 Copy CRC E09B7038 Track not present in AccurateRip database Copy OK

Track 6

Filename M:\Zik Flac\VA - Music From Desperate Housewives (2005, FLAC)\06. Felicity Huffman - Lynette (Dialog).wav

Peak level 90.1 % Track quality 100.0 % Test CRC B1107A7B Copy CRC B1107A7B Track not present in AccurateRip database Copy OK

Track 7

Filename M:\Zik Flac\VA - Music From Desperate Housewives (2005, FLAC)\07. Liz Phair - Mother's Little Helper.wav

Peak level 99.8 % Track quality 100.0 % Test CRC F163236F Copy CRC F163236F Track not present in AccurateRip database Copy OK

Track 8

Filename M:\Zik Flac\VA - Music From Desperate Housewives (2005, FLAC)\08. Indigo Girls - Mrs. Robinson.wav

Peak level 99.8 % Track quality 100.0 % Test CRC 45DC7A8C Copy CRC 45DC7A8C Track not present in AccurateRip database Copy OK

Track 9

Filename M:\Zik Flac\VA - Music From Desperate Housewives (2005, FLAC)\09. Martina McBride - Harper Vally PTA.wav

Peak level 99.8 % Track quality 100.0 % Test CRC 0D2026B0 Copy CRC 0D2026B0 Track not present in AccurateRip database Copy OK

Track 10

Filename M:\Zik Flac\VA - Music From Desperate Housewives (2005, FLAC)\10. Marcia Cross - Bree (Dialog).wav

Peak level 96.2 % Track quality 100.0 % Test CRC 67C000F6 Copy CRC 67C000F6 Track not present in AccurateRip database Copy OK

Track 11

Filename M:\Zik Flac\VA - Music From Desperate Housewives (2005, FLAC)\11. LeAnn Rimes - We're Running Out Of Time.wav

Peak level 99.8 % Track quality 99.6 % Test CRC FC61D798 Copy CRC FC61D798 Track not present in AccurateRip database Copy OK

Track 12

Filename M:\Zik Flac\VA - Music From Desperate Housewives (2005, FLAC)\12. Joss Stone - Treat Me Right (I'm Yours For Life).wav

Peak level 99.8 % Track quality 100.0 % Test CRC 6B20F224 Copy CRC 6B20F224 Track not present in AccurateRip database Copy OK

Track 13

Filename M:\Zik Flac\VA - Music From Desperate Housewives (2005, FLAC)\13. Sara Evans - One's On The Way.wav

Peak level 99.8 % Track quality 100.0 % Test CRC 49441E01 Copy CRC 49441E01 Track not present in AccurateRip database Copy OK

Track 14

Filename M:\Zik Flac\VA - Music From Desperate Housewives (2005, FLAC)\14. Eva Longoria - Gabrielle (Dialog).wav

Peak level 99.8 % Track quality 100.0 % Test CRC F5E575D1 Copy CRC F5E575D1 Track not present in AccurateRip database Copy OK

Track 15

Filename M:\Zik Flac\VA - Music From Desperate Housewives (2005, FLAC)\15. Macy Gray - Boom Boom.wav

Peak level 99.8 % Track quality 100.0 % Test CRC 69EE3A6A Copy CRC 69EE3A6A Track not present in AccurateRip database Copy OK

Track 16

Filename M:\Zik Flac\VA - Music From Desperate Housewives (2005, FLAC)\16. Gloria Estefan - Young Hearts Run Free.wav

Peak level 99.8 % Track quality 100.0 % Test CRC E3837531 Copy CRC E3837531 Track not present in AccurateRip database Copy OK

Track 17

Filename M:\Zik Flac\VA - Music From Desperate Housewives (2005, FLAC)\17. Teri Hatcher - Susan (Dialog).wav

Peak level 99.6 % Track quality 100.0 % Test CRC 9C53A751 Copy CRC 9C53A751 Track not present in AccurateRip database Copy OK

Track 18

Filename M:\Zik Flac\VA - Music From Desperate Housewives (2005, FLAC)\18. Idina Menzel - Damsel In Distress.wav

Peak level 99.8 % Track quality 100.0 % Test CRC C4EEDD4B Copy CRC C4EEDD4B Track not present in AccurateRip database Copy OK

Track 19

Filename M:\Zik Flac\VA - Music From Desperate Housewives (2005, FLAC)\19. k.d. lang - Dream of the Everyday Housewife.wav

Peak level 99.8 % Track quality 100.0 % Test CRC 20325778 Copy CRC 20325778 Track not present in AccurateRip database Copy OK

Track 20

Filename M:\Zik Flac\VA - Music From Desperate Housewives (2005, FLAC)\20. Brenda Strong - Mary Alice (Dialog).wav

Peak level 66.5 % Track quality 100.0 % Test CRC FE805776 Copy CRC FE805776 Track not present in AccurateRip database Copy OK

Track 21

Filename M:\Zik Flac\VA - Music From Desperate Housewives (2005, FLAC)\21. Danny Elfman, Marc Cherry - Desperate Housewives Theme,Wisteria Lane.wav

Peak level 99.8 % Track quality 100.0 % Test CRC 155A52B3 Copy CRC 155A52B3 Track not present in AccurateRip database Copy OK

None of the tracks are present in the AccurateRip database

No errors occurred

End of status report
 
REM GENRE SoundtrackREM DATE 2006REM DISCID 27115616REM COMMENT "ExactAudioCopy v0.99pb5"FILE "01. Brenda Strong - Mary Alice (Dialog).wav" WAVE TRACK 01 AUDIO INDEX 01 00:00:00FILE "02. SHeDAISY - God Bless The American Housewife.wav" WAVE TRACK 02 AUDIO INDEX 01 00:00:00FILE "03. Nicollette Sheridan - Edie (Dialog).wav" WAVE TRACK 03 AUDIO INDEX 01 00:00:00FILE "04. Shania Twain - Shoes.wav" WAVE TRACK 04 AUDIO INDEX 01 00:00:00FILE "05. Anna Nalick - Band Of Gold.wav" WAVE TRACK 05 AUDIO INDEX 01 00:00:00FILE "06. Felicity Huffman - Lynette (Dialog).wav" WAVE TRACK 06 AUDIO INDEX 01 00:00:00FILE "07. Liz Phair - Mother's Little Helper.wav" WAVE TRACK 07 AUDIO INDEX 01 00:00:00FILE "08. Indigo Girls - Mrs. Robinson.wav" WAVE TRACK 08 AUDIO INDEX 01 00:00:00FILE "09. Martina McBride - Harper Vally PTA.wav" WAVE TRACK 09 AUDIO INDEX 01 00:00:00FILE "10. Marcia Cross - Bree (Dialog).wav" WAVE TRACK 10 AUDIO INDEX 01 00:00:00FILE "11. LeAnn Rimes - We're Running Out Of Time.wav" WAVE TRACK 11 AUDIO INDEX 01 00:00:00FILE "12. Joss Stone - Treat Me Right (I'm Yours For Life).wav" WAVE TRACK 12 AUDIO INDEX 01 00:00:00FILE "13. Sara Evans - One's On The Way.wav" WAVE TRACK 13 AUDIO INDEX 01 00:00:00FILE "14. Eva Longoria - Gabrielle (Dialog).wav" WAVE TRACK 14 AUDIO INDEX 01 00:00:00FILE "15. Macy Gray - Boom Boom.wav" WAVE TRACK 15 AUDIO INDEX 01 00:00:00FILE "16. Gloria Estefan - Young Hearts Run Free.wav" WAVE TRACK 16 AUDIO INDEX 01 00:00:00FILE "17. Teri Hatcher - Susan (Dialog).wav" WAVE TRACK 17 AUDIO INDEX 01 00:00:00FILE "18. Idina Menzel - Damsel In Distress.wav" WAVE TRACK 18 AUDIO INDEX 01 00:00:00FILE "19. k.d. lang - Dream of the Everyday Housewife.wav" WAVE TRACK 19 AUDIO INDEX 01 00:00:00FILE "20. Brenda Strong - Mary Alice (Dialog).wav" WAVE TRACK 20 AUDIO INDEX 01 00:00:00FILE "21. Danny Elfman, Marc Cherry - Desperate Housewives Theme, Wisteria Lane.wav" WAVE TRACK 21 AUDIO INDEX 01 00:00:00



Трекер:  [ 07-Июл-2011 23:36 ]

  

Скачать .torrent

Размер .torrent файла 15 KB


Размер: 349 MB
Хэш (hash) релиза: 1664b1642017616a0ff54559b4e963bc6f3af22e

Еще никто не оставлял запись к записи скачать торрент Отчаянные домохозяйки Desperate Housewives - 2006 . Будь первым!

!Обратная связь