Скачать через торрент музыку Настоящая кровь True Blood: Volume 2 - 2010 бесплатно без регистрации torrent

Если у вас наблюдаются проблемы со скриншотами, переходом по ссылками, скачиванием торрентов - проблемы в блокировщике рекламы AdBlock. #хорошегоДня!


Статистика раздачи
Размер:  311 MB   |    Зарегистрирован:  6 лет 9 месяцев   |    .torrent скачан:  111 раз   |   
Раздают:  1  
   
Загрузка...
 
Автор Сообщение

AqvaGen


Настоящая кровь / True Blood: Volume 2

Жанр: Soundtrack
Год выпуска диска: 2010
Производитель диска: USA
Аудио кодек: FLAC
Тип рипа: tracks+.cue
Битрейт аудио: lossless
Продолжительность: 00:51:44

01 - M. Ward - Howlin' For My Baby (03:00)
02 - Jace Everett & C.C. Adcock - Evil (Is Going On) (03:03)
03 - Beck - Bad Blood (03:28)
04 - Robbie Robertson - How To Become Clairvoyant (06:14)
05 - Jr. Walker & The All Stars - Shake And Fingerpop (02:44)
06 - Screamin' Jay Hawkins - Frenzy (02:11)
07 - Lucinda Williams & Elvis Costello - Kiss Like Your Kiss (03:50)
08 - Buddy & Julie Miller - Gasoline And Matches (03:14)
09 - Chuck Prophet - You Did (Bomp Shooby Dooby Bomp) (04:29)
10 - 13th Floor Elevators - You're Gonna Miss Me (02:28)
11 - Eels - Fresh Blood (04:26)
12 - Thievery Corporation - Forgotten People (03:13)
13 - King Britt & Sister Gertude Morgan - New World In My View (05:34)
14 - Bob Dylan - Beyond Here Lies Nothin' (03:50)

 
Exact Audio Copy V0.99 prebeta 5 from 4. May 2009

EAC extraction logfile from 2. June 2010, 15:43

Various Artists / True Blood: Music From the HBO Original Series Volume 2

Used drive : LITE-ON DVDRW LH-20A1L Adapter: 2 ID: 2

Read mode : SecureUtilize accurate stream : YesDefeat audio cache : YesMake use of C2 pointers : No

Read offset correction : 6Overread into Lead-In and Lead-Out : NoFill up missing offset samples with silence : YesDelete leading and trailing silent blocks : NoNull samples used in CRC calculations : YesUsed interface : Native Win32 interface for Win NT & 2000Gap handling : Appended to previous track

Used output format : User Defined EncoderSelected bitrate : 320 kBit/sQuality : HighAdd ID3 tag : NoCommand line compressor : C:\Program Files (x86)\Exact Audio Copy\Flac\flac.exeAdditional command line options : -V -8 -T "artist=%a" -T "title=%t" -T "album=%g" -T "date=%y" -T "tracknumber=%n" -T "genre=%m" %s

TOC of the extracted CD

Track | Start | Length | Start sector | End sector --------------------------------------------------------- 1 | 0:00.00 | 3:00.05 | 0 | 13504 2 | 3:00.05 | 3:03.35 | 13505 | 27264 3 | 6:03.40 | 3:28.02 | 27265 | 42866 4 | 9:31.42 | 6:13.53 | 42867 | 70894 5 | 15:45.20 | 2:44.00 | 70895 | 83194 6 | 18:29.20 | 2:11.12 | 83195 | 93031 7 | 20:40.32 | 3:50.35 | 93032 | 110316 8 | 24:30.67 | 3:13.53 | 110317 | 124844 9 | 27:44.45 | 4:29.12 | 124845 | 145031 10 | 32:13.57 | 2:27.68 | 145032 | 156124 11 | 34:41.50 | 4:26.07 | 156125 | 176081 12 | 39:07.57 | 3:13.30 | 176082 | 190586 13 | 42:21.12 | 5:33.50 | 190587 | 215611 14 | 47:54.62 | 3:50.13 | 215612 | 232874

Track 1

Filename C:\EAC\Various Artists - 2010 - True Blood- Music From the HBO Original Series Volume 2\01 - M. Ward - Howlin' For My Baby.wav

Pre-gap length 0:00:02.00

Peak level 98.7 % Track quality 100.0 % Test CRC 8D820A76 Copy CRC 8D820A76 Track not present in AccurateRip database Copy OK

Track 2

Filename C:\EAC\Various Artists - 2010 - True Blood- Music From the HBO Original Series Volume 2\02 - Jace Everett & C.C. Adcock - Evil (Is Going On).wav

Peak level 98.7 % Track quality 100.0 % Test CRC 15CE7EB1 Copy CRC 15CE7EB1 Track not present in AccurateRip database Copy OK

Track 3

Filename C:\EAC\Various Artists - 2010 - True Blood- Music From the HBO Original Series Volume 2\03 - Beck - Bad Blood.wav

Pre-gap length 0:00:00.90

Peak level 94.3 % Track quality 100.0 % Test CRC 2789306C Copy CRC 2789306C Track not present in AccurateRip database Copy OK

Track 4

Filename C:\EAC\Various Artists - 2010 - True Blood- Music From the HBO Original Series Volume 2\04 - Robbie Robertson - How To Become Clairvoyant.wav

Pre-gap length 0:00:00.69

Peak level 98.7 % Track quality 100.0 % Test CRC 89FE1854 Copy CRC 89FE1854 Track not present in AccurateRip database Copy OK

Track 5

Filename C:\EAC\Various Artists - 2010 - True Blood- Music From the HBO Original Series Volume 2\05 - Jr. Walker & The All Stars - Shake And Fingerpop.wav

Peak level 88.0 % Track quality 100.0 % Test CRC 42C93BAE Copy CRC 42C93BAE Track not present in AccurateRip database Copy OK

Track 6

Filename C:\EAC\Various Artists - 2010 - True Blood- Music From the HBO Original Series Volume 2\06 - Screamin' Jay Hawkins - Frenzy.wav

Pre-gap length 0:00:01.00

Peak level 83.0 % Track quality 99.9 % Test CRC 11C2EC64 Copy CRC 11C2EC64 Track not present in AccurateRip database Copy OK

Track 7

Filename C:\EAC\Various Artists - 2010 - True Blood- Music From the HBO Original Series Volume 2\07 - Lucinda Williams & Elvis Costello - Kiss Like Your Kiss.wav

Pre-gap length 0:00:00.33

Peak level 93.2 % Track quality 99.9 % Test CRC 2E1E136F Copy CRC 2E1E136F Track not present in AccurateRip database Copy OK

Track 8

Filename C:\EAC\Various Artists - 2010 - True Blood- Music From the HBO Original Series Volume 2\08 - Buddy & Julie Miller - Gasoline And Matches.wav

Peak level 98.7 % Track quality 100.0 % Test CRC 3C9CF497 Copy CRC 3C9CF497 Track not present in AccurateRip database Copy OK

Track 9

Filename C:\EAC\Various Artists - 2010 - True Blood- Music From the HBO Original Series Volume 2\09 - Chuck Prophet - You Did (Bomp Shooby Dooby Bomp).wav

Pre-gap length 0:00:00.84

Peak level 98.7 % Track quality 100.0 % Test CRC 3AD81461 Copy CRC 3AD81461 Track not present in AccurateRip database Copy OK

Track 10

Filename C:\EAC\Various Artists - 2010 - True Blood- Music From the HBO Original Series Volume 2\10 - 13th Floor Elevators - You're Gonna Miss Me.wav

Peak level 98.7 % Track quality 100.0 % Test CRC BFE46369 Copy CRC BFE46369 Track not present in AccurateRip database Copy OK

Track 11

Filename C:\EAC\Various Artists - 2010 - True Blood- Music From the HBO Original Series Volume 2\11 - Eels - Fresh Blood.wav

Pre-gap length 0:00:00.20

Peak level 96.4 % Track quality 100.0 % Test CRC DBC67290 Copy CRC DBC67290 Track not present in AccurateRip database Copy OK

Track 12

Filename C:\EAC\Various Artists - 2010 - True Blood- Music From the HBO Original Series Volume 2\12 - Thievery Corporation - Forgotten People.wav

Pre-gap length 0:00:02.16

Peak level 98.7 % Track quality 100.0 % Test CRC BD7EF516 Copy CRC BD7EF516 Track not present in AccurateRip database Copy OK

Track 13

Filename C:\EAC\Various Artists - 2010 - True Blood- Music From the HBO Original Series Volume 2\13 - King Britt & Sister Gertude Morgan - New World In My View.wav

Pre-gap length 0:00:00.96

Peak level 98.7 % Track quality 100.0 % Test CRC DB87C77E Copy CRC DB87C77E Track not present in AccurateRip database Copy OK

Track 14

Filename C:\EAC\Various Artists - 2010 - True Blood- Music From the HBO Original Series Volume 2\14 - Bob Dylan - Beyond Here Lies Nothin'.wav

Pre-gap length 0:00:01.73

Peak level 99.7 % Track quality 100.0 % Test CRC 1EFA25FD Copy CRC 1EFA25FD Track not present in AccurateRip database Copy OK

None of the tracks are present in the AccurateRip database

No errors occurred

End of status report
 
REM GENRE SoundtrackREM DATE 2010REM DISCID C20C210EREM COMMENT "ExactAudioCopy v0.99pb5"FILE "01 - M. Ward - Howlin' For My Baby.wav" WAVE TRACK 01 AUDIO INDEX 01 00:00:00FILE "02 - Jace Everett & C.C. Adcock - Evil (Is Going On).wav" WAVE TRACK 02 AUDIO INDEX 01 00:00:00 TRACK 03 AUDIO INDEX 00 03:02:42FILE "03 - Beck - Bad Blood.wav" WAVE INDEX 01 00:00:00 TRACK 04 AUDIO INDEX 00 03:27:25FILE "04 - Robbie Robertson - How To Become Clairvoyant.wav" WAVE INDEX 01 00:00:00FILE "05 - Jr. Walker & The All Stars - Shake And Fingerpop.wav" WAVE TRACK 05 AUDIO INDEX 01 00:00:00 TRACK 06 AUDIO INDEX 00 02:43:00FILE "06 - Screamin' Jay Hawkins - Frenzy.wav" WAVE INDEX 01 00:00:00 TRACK 07 AUDIO INDEX 00 02:10:62FILE "07 - Lucinda Williams & Elvis Costello - Kiss Like Your Kiss.wav" WAVE INDEX 01 00:00:00FILE "08 - Buddy & Julie Miller - Gasoline And Matches.wav" WAVE TRACK 08 AUDIO INDEX 01 00:00:00 TRACK 09 AUDIO INDEX 00 03:12:65FILE "09 - Chuck Prophet - You Did (Bomp Shooby Dooby Bomp).wav" WAVE INDEX 01 00:00:00FILE "10 - 13th Floor Elevators - You're Gonna Miss Me.wav" WAVE TRACK 10 AUDIO INDEX 01 00:00:00 TRACK 11 AUDIO INDEX 00 02:27:53FILE "11 - Eels - Fresh Blood.wav" WAVE INDEX 01 00:00:00 TRACK 12 AUDIO INDEX 00 04:23:70FILE "12 - Thievery Corporation - Forgotten People.wav" WAVE INDEX 01 00:00:00 TRACK 13 AUDIO INDEX 00 03:12:33FILE "13 - King Britt & Sister Gertude Morgan - New World In My View.wav" WAVE INDEX 01 00:00:00 TRACK 14 AUDIO INDEX 00 05:31:70FILE "14 - Bob Dylan - Beyond Here Lies Nothin'.wav" WAVE INDEX 01 00:00:00



Трекер:  [ 19-Дек-2010 16:02 ]

  

Скачать .torrent

Размер .torrent файла 13 KB


Размер: 311 MB
Хэш (hash) релиза: cfb0eb7d2332cb663306246cf21dfd83e3b21667

bot

Топик был перенесен в форум Саундтреки к фильмам и мультфильмам (lossless)

Перенес AqvaGen

Хотите добавить комментарий к записи скачать торрент Настоящая кровь True Blood: Volume 2 - 2010

!Обратная связь