Скачать через торрент музыку Рок Звезда Rock Star - 2001 бесплатно без регистрации torrent

Если у вас наблюдаются проблемы со скриншотами, переходом по ссылками, скачиванием торрентов - проблемы в блокировщике рекламы AdBlock. #хорошегоДня!


Статистика раздачи
Размер:  430 MB   |    Зарегистрирован:  6 лет 2 месяца   |    .torrent скачан:  94 раза   |   
Раздают:  1  
   
Загрузка...
 
Автор Сообщение

Galfimbul

avatar Galfimbul


Рок Звезда / Rock Star

Жанр: Soundtrack / Hard Rock
Год выпуска диска: 2001
Производитель диска: USA
Аудио кодек: FLAC
Тип рипа: tracks+.cue
Битрейт аудио: lossless
Продолжительность: 00:57:45

01 - Everclear - Rock Star (03:30)
02 - Steel Dragon - Livin' The Life (03:15)
03 - Mötley Crüe - Wild Side (04:34)
04 - Steel Dragon - We All Die Young (04:02)
05 - Steel Dragon - Blood Pollution (04:00)
06 - Bon Jovi - Livin' On A Prayer (04:09)
07 - Steel Dragon - Stand Up (04:18)
08 - Ted Nugent - Stranglehold (08:24)
09 - Steel Dragon - Wasted Generation (02:54)
10 - Kiss - Lick It Up (03:57)
11 - Steel Dragon - Long Live Rock And Roll (03:28)
12 - INXS - Devil Inside (05:14)
13 - The Verve Pipe - Colorful (Rock Star Version) (04:25)
14 - Trevor Rabin - Gotta Have It (Music From `Rock Star') (02:58)

Источник: waffles.fm
 
Exact Audio Copy V0.99 prebeta 5 from 4. May 2009

EAC extraction logfile from 26. July 2009, 17:24

Various Artists / Rock Star - Music From the Motion Picture

Used drive : TSSTcorpCDDVDW TS-L632N Adapter: 0 ID: 0

Read mode : SecureUtilize accurate stream : YesDefeat audio cache : YesMake use of C2 pointers : No

Read offset correction : 6Overread into Lead-In and Lead-Out : NoFill up missing offset samples with silence : YesDelete leading and trailing silent blocks : NoNull samples used in CRC calculations : YesUsed interface : Native Win32 interface for Win NT & 2000Gap handling : Appended to previous track

Used output format : User Defined EncoderSelected bitrate : 768 kBit/sQuality : HighAdd ID3 tag : NoCommand line compressor : C:\Program Files\Exact Audio Copy\FLAC\FLAC.EXEAdditional command line options : -8 -V -T "ARTIST=%a" -T "TITLE=%t" -T "ALBUM=%g" -T "DATE=%y" -T "TRACKNUMBER=%n" -T "GENRE=%m" -T "COMMENT=%e" %s -o %d

TOC of the extracted CD

Track | Start | Length | Start sector | End sector --------------------------------------------------------- 1 | 0:00.00 | 3:30.27 | 0 | 15776 2 | 3:30.27 | 3:14.53 | 15777 | 30379 3 | 6:45.05 | 4:34.25 | 30380 | 50954 4 | 11:19.30 | 4:01.40 | 50955 | 69069 5 | 15:20.70 | 3:59.67 | 69070 | 87061 6 | 19:20.62 | 4:08.58 | 87062 | 105719 7 | 23:29.45 | 4:18.25 | 105720 | 125094 8 | 27:47.70 | 8:23.65 | 125095 | 162884 9 | 36:11.60 | 2:54.10 | 162885 | 175944 10 | 39:05.70 | 3:56.45 | 175945 | 193689 11 | 43:02.40 | 3:27.62 | 193690 | 209276 12 | 46:30.27 | 5:13.45 | 209277 | 232796 13 | 51:43.72 | 4:25.28 | 232797 | 252699 14 | 56:09.25 | 2:57.47 | 252700 | 266021

Track 1

Filename D:\EACRips\01 - Everclear - Rock Star.wav

Pre-gap length 0:00:02.00

Peak level 98.8 % Track quality 100.0 % Test CRC 0DA55CFC Copy CRC 0DA55CFC Accurately ripped (confidence 17) [63AF6E5D] Copy OK

Track 2

Filename D:\EACRips\02 - Steel Dragon - Livin' The Life.wav

Peak level 98.8 % Track quality 100.0 % Test CRC 085F4E25 Copy CRC 085F4E25 Accurately ripped (confidence 19) [520DDBA5] Copy OK

Track 3

Filename D:\EACRips\03 - Mцtley Crьe - Wild Side.wav

Peak level 98.8 % Track quality 100.0 % Test CRC 7F1680A7 Copy CRC 7F1680A7 Accurately ripped (confidence 18) [EBD0B57B] Copy OK

Track 4

Filename D:\EACRips\04 - Steel Dragon - We All Die Young.wav

Peak level 98.8 % Track quality 100.0 % Test CRC 25AA806C Copy CRC 25AA806C Accurately ripped (confidence 19) [0B5731B4] Copy OK

Track 5

Filename D:\EACRips\05 - Steel Dragon - Blood Pollution.wav

Peak level 98.8 % Track quality 100.0 % Test CRC 67121AE3 Copy CRC 67121AE3 Accurately ripped (confidence 19) [E7B64169] Copy OK

Track 6

Filename D:\EACRips\06 - Bon Jovi - Livin' On A Prayer.wav

Peak level 98.8 % Track quality 100.0 % Test CRC ABBEA1EF Copy CRC ABBEA1EF Accurately ripped (confidence 18) [DC4F0967] Copy OK

Track 7

Filename D:\EACRips\07 - Steel Dragon - Stand Up.wav

Peak level 98.8 % Track quality 99.9 % Test CRC 3114862F Copy CRC 3114862F Accurately ripped (confidence 19) [782A8B12] Copy OK

Track 8

Filename D:\EACRips\08 - Ted Nugent - Stranglehold.wav

Peak level 98.8 % Track quality 100.0 % Test CRC F541BF9A Copy CRC F541BF9A Accurately ripped (confidence 18) [F4472517] Copy OK

Track 9

Filename D:\EACRips\09 - Steel Dragon - Wasted Generation.wav

Pre-gap length 0:00:01.40

Peak level 98.8 % Track quality 100.0 % Test CRC CA6D7147 Copy CRC CA6D7147 Accurately ripped (confidence 19) [EF11EC8C] Copy OK

Track 10

Filename D:\EACRips\10 - Kiss - Lick It Up.wav

Peak level 98.8 % Track quality 100.0 % Test CRC 5B01F07D Copy CRC 5B01F07D Accurately ripped (confidence 17) [04F50B9D] Copy OK

Track 11

Filename D:\EACRips\11 - Steel Dragon - Long Live Rock And Roll.wav

Peak level 98.8 % Track quality 100.0 % Test CRC 8595E71F Copy CRC 8595E71F Accurately ripped (confidence 18) [448DD03F] Copy OK

Track 12

Filename D:\EACRips\12 - INXS - Devil Inside.wav

Peak level 98.8 % Track quality 100.0 % Test CRC 1A4E80A8 Copy CRC 1A4E80A8 Accurately ripped (confidence 17) [DEF08188] Copy OK

Track 13

Filename D:\EACRips\13 - The Verve Pipe - Colorful (Rock Star Version).wav

Peak level 98.8 % Track quality 100.0 % Test CRC FD03515A Copy CRC FD03515A Accurately ripped (confidence 18) [22381D77] Copy OK

Track 14

Filename D:\EACRips\14 - Trevor Rabin - Gotta Have It (Music From `Rock Star').wav

Peak level 98.8 % Track quality 100.0 % Test CRC DFB3DB26 Copy CRC DFB3DB26 Accurately ripped (confidence 17) [CCDE9A26] Copy OK

All tracks accurately ripped

No errors occurred

End of status report
 
REM GENRE SoundtrackREM DATE 2001REM DISCID B00DDA0EREM COMMENT "ExactAudioCopy v0.99pb5"PERFORMER "Various Artists"TITLE "Rock Star - Music From the Motion Picture"FILE "01 - Everclear - Rock Star.wav" WAVE TRACK 01 AUDIO TITLE "Rock Star" PERFORMER "Everclear" ISRC H2:320001261 INDEX 01 00:00:00FILE "02 - Steel Dragon - Livin' The Life.wav" WAVE TRACK 02 AUDIO TITLE "Livin' The Life" PERFORMER "Steel Dragon" INDEX 01 00:00:00FILE "03 - Mцtley Crьe - Wild Side.wav" WAVE TRACK 03 AUDIO TITLE "Wild Side" PERFORMER "Mцtley Crьe" ISRC H29]29900189 INDEX 01 00:00:00FILE "04 - Steel Dragon - We All Die Young.wav" WAVE TRACK 04 AUDIO TITLE "We All Die Young" PERFORMER "Steel Dragon" INDEX 01 00:00:00FILE "05 - Steel Dragon - Blood Pollution.wav" WAVE TRACK 05 AUDIO TITLE "Blood Pollution" PERFORMER "Steel Dragon" INDEX 01 00:00:00FILE "06 - Bon Jovi - Livin' On A Prayer.wav" WAVE TRACK 06 AUDIO TITLE "Livin' On A Prayer" PERFORMER "Bon Jovi" ISRC H2HF39402218 INDEX 01 00:00:00FILE "07 - Steel Dragon - Stand Up.wav" WAVE TRACK 07 AUDIO TITLE "Stand Up" PERFORMER "Steel Dragon" INDEX 01 00:00:00FILE "08 - Ted Nugent - Stranglehold.wav" WAVE TRACK 08 AUDIO TITLE "Stranglehold" PERFORMER "Ted Nugent" ISRC H2KM19804011 INDEX 01 00:00:00 TRACK 09 AUDIO TITLE "Wasted Generation" PERFORMER "Steel Dragon" INDEX 00 08:22:25FILE "09 - Steel Dragon - Wasted Generation.wav" WAVE INDEX 01 00:00:00FILE "10 - Kiss - Lick It Up.wav" WAVE TRACK 10 AUDIO TITLE "Lick It Up" PERFORMER "Kiss" ISRC H2Dn18382039 INDEX 01 00:00:00FILE "11 - Steel Dragon - Long Live Rock And Roll.wav" WAVE TRACK 11 AUDIO TITLE "Long Live Rock And Roll" PERFORMER "Steel Dragon" INDEX 01 00:00:00FILE "12 - INXS - Devil Inside.wav" WAVE TRACK 12 AUDIO TITLE "Devil Inside" PERFORMER "INXS" INDEX 01 00:00:00FILE "13 - The Verve Pipe - Colorful (Rock Star Version).wav" WAVE TRACK 13 AUDIO TITLE "Colorful (Rock Star Version)" PERFORMER "The Verve Pipe" INDEX 01 00:00:00FILE "14 - Trevor Rabin - Gotta Have It (Music From `Rock Star').wav" WAVE TRACK 14 AUDIO TITLE "Gotta Have It (Music From `Rock Star')" PERFORMER "Trevor Rabin" INDEX 01 00:00:00



Трекер:  [ 07-Июл-2011 23:40 ]

  

Скачать .torrent

Размер .torrent файла 18 KB


Размер: 430 MB
Хэш (hash) релиза: 02461ba75b046b745db7ceebeb49b102d1d9f339

Торренты, похожие на Рок Звезда Rock Star - 2001 скачать торрент

Форум Название Автор Размер S L Добавлен
Саундтреки к фильмам и мультфильмам (mp3) ·· (Soundtrack) Рок-звезда / Rock Star - 2001, MP3, 320 kbps AqvaGen 141957981135 MB 0 0 1292265292

21:34

13-Дек-10

Еще никто не оставлял запись к записи скачать торрент Рок Звезда Rock Star - 2001 . Будь первым!

!Обратная связь