Скачать через торрент музыку Forrest Gump - The Soundtrack - 1994 бесплатно без регистрации torrent

Если у вас наблюдаются проблемы со скриншотами, переходом по ссылками, скачиванием торрентов - проблемы в блокировщике рекламы AdBlock. #хорошегоДня!


Статистика раздачи
Размер:  770 MB   |    Зарегистрирован:  6 лет 2 месяца   |    .torrent скачан:  47 раз   |   
Раздают:  1  
   
Загрузка...
 
Автор Сообщение

Galfimbul

avatar Galfimbul


Various - Forrest Gump - The Soundtrack (2CD)

Жанр: Soundtrack
Год выпуска диска: 1994
Производитель диска: USA
Аудио кодек: APE
Тип рипа: image+.cue
Битрейт аудио: lossless
Продолжительность:
CD1 - 44:51.28
CD2 - 63:11.40

Трэклист:
Disc One
01. Elvis Presley - Hound Dog (2:18)
02. Duane Eddy - Rebel Rouser (2:25)
03. Clarence "Frogman" Henry - (I Don't Know Why) But I Do (2:22)
04. Rooftop Singers - Walk Right In (2:35)
05. Wilson Pickett - Land Of 1000 Dances (2:26)
06. Joan Baez - Blowin' In The Wind (2:39)
07. Creedence Clearwater Revival - Fortunate Son (2:21)
08. The Four Tops - I Can't Help Myself (Sugar Pie Honey Bunch) (2:44)
09. Aretha Franklin - Respect (2:29)
10. Bob Dylan - Rainy Day Women #12 & 35 (4:38)
11. The Beach Boys - Sloop John B (2:58)
12. The Mamas & the Papas - California Dreamin' (2:41)
13. Buffalo Springfield - For What It's Worth (2:41)
14. Jackie DeShannon - What The World Needs Now Is Love (3:14)
15. The Doors - Break On Through (To The Other Side) (2:30)
16. Simon & Garfunkel - Mrs. Robinson (3:50)

Disc Two
01. Jefferson Airplane - Volunteers (2:09)
02. The Youngbloods - Let's Get Together (4:39)
03. Scott McKenzie - San Francisco (Be Sure to Wear Flowers in Your Hair) (3:02)
04. The Byrds - Turn! Turn! Turn! (To Everything There Is a Season) (3:57)
05. The 5th Dimension - Aquarius/Let the Sunshine In (4:50)
06. Harry Nilsson - Everybody's Talkin' (2:46)
07. Three Dog Night - Joy to the World (3:19)
08. The Supremes - Stoned Love (3:02)
09. B.J. Thomas - Raindrops Keep Fallin' on My Head (3:03)
10. Randy Newman - Mr. President (Have Pity on the Working Man) (2:48)
11. Lynyrd Skynyrd - Sweet Home Alabama (4:45)
12. The Doobie Brothers - It Keeps You Runnin' (4:22)
13. Gladys Knight & the Pips - I've Got to Use My Imagination (3:32)
14. Willie Nelson - On the Road Again (2:33)
15. Bob Seger & The Silver Bullet Band - Against the Wind (5:36)
16. Alan Silvestri - Forrest Gump Suite (8:50)

Доп. информация - http://en.wikipedia.org/wiki/Forrest_Gump

На Discogs - http://www.discogs.com/Various-Forrest-Gump-The-Soundtrack/release/443850
 
Exact Audio Copy V0.99 prebeta 4 from 23. January 2008

Отчёт EAC об извлечении, выполненном 2. мая 2009, 8:50

Various / Forrest Gump [Original Soundtrack]

Дисковод: HL-DT-STDVDRAM GH20NS10 Adapter: 1 ID: 0

Режим чтения : ДостоверностьИспользование точного потока : ДаОтключение кэша аудио : ДаИспользование указателей C2 : Нет

Коррекция смещения при чтении : 667Способность читать области Lead-in и Lead-out : НетЗаполнение пропущенных сэмплов тишиной : ДаУдаление блоков с тишиной в начале и конце : НетПри вычислениях CRC использовались нулевые сэмплы : ДаИнтерфейс : Установленный внешний ASPI-интерфейс

Выходной формат : Внутренние WAV-операцииФормат сэмплов : 44.100 Гц; 16 бит; стерео

TOC извлечённого CD

Трек | Старт | Длительность | Начальный сектор | Конечный сектор --------------------------------------------------------------------- 1 | 0:00.00 | 2:18.28 | 0 | 10377 2 | 2:18.28 | 2:24.57 | 10378 | 21234 3 | 4:43.10 | 2:21.58 | 21235 | 31867 4 | 7:04.68 | 2:35.12 | 31868 | 43504 5 | 9:40.05 | 2:26.03 | 43505 | 54457 6 | 12:06.08 | 2:38.57 | 54458 | 66364 7 | 14:44.65 | 2:21.30 | 66365 | 76969 8 | 17:06.20 | 2:43.50 | 76970 | 89244 9 | 19:49.70 | 2:29.30 | 89245 | 100449 10 | 22:19.25 | 4:37.58 | 100450 | 121282 11 | 26:57.08 | 2:57.60 | 121283 | 134617 12 | 29:54.68 | 2:41.35 | 134618 | 146727 13 | 32:36.28 | 2:40.40 | 146728 | 158767 14 | 35:16.68 | 3:14.25 | 158768 | 173342 15 | 38:31.18 | 2:29.57 | 173343 | 184574 16 | 41:01.00 | 3:50.28 | 184575 | 201852

Характеристики диапазона извлечения и сообщения об ошибках

Выбранный диапазон

Имя файла K:\Forrest Gump - The Soundtrack (1994)\CD1\Various - Forrest Gump [Original Soundtrack].wav

Пиковый уровень 100.0 % Качество диапазона 100.0 % CRC копии 908198B8 Копирование... OK

Ошибок не произошло

AccurateRip: сводка

Трек 1 точное извлечение (доверие 19) [1AF96B8C]Трек 2 точное извлечение (доверие 20) [FE372705]Трек 3 точное извлечение (доверие 20) [D3DA6572]Трек 4 точное извлечение (доверие 21) [BC60EE79]Трек 5 точное извлечение (доверие 21) [2AE928C2]Трек 6 точное извлечение (доверие 21) [2C2982ED]Трек 7 точное извлечение (доверие 21) [9CCDEF52]Трек 8 точное извлечение (доверие 21) [DF76AF7C]Трек 9 точное извлечение (доверие 21) [B34FC73F]Трек 10 точное извлечение (доверие 21) [FBD7C8E2]Трек 11 точное извлечение (доверие 21) [75F938B1]Трек 12 точное извлечение (доверие 21) [D26BCE6B]Трек 13 точное извлечение (доверие 20) [6786F497]Трек 14 точное извлечение (доверие 21) [5075EF35]Трек 15 точное извлечение (доверие 21) [58B3D2D7]Трек 16 точное извлечение (доверие 20) [3D41A6C4]

Все треки извлечены точно

Конец отчёта
 
Exact Audio Copy V0.99 prebeta 4 from 23. January 2008

Отчёт EAC об извлечении, выполненном 2. мая 2009, 9:03

Various / Forrest Gump [Original Soundtrack] CD2

Дисковод: HL-DT-STDVDRAM GH20NS10 Adapter: 1 ID: 0

Режим чтения : ДостоверностьИспользование точного потока : ДаОтключение кэша аудио : ДаИспользование указателей C2 : Нет

Коррекция смещения при чтении : 667Способность читать области Lead-in и Lead-out : НетЗаполнение пропущенных сэмплов тишиной : ДаУдаление блоков с тишиной в начале и конце : НетПри вычислениях CRC использовались нулевые сэмплы : ДаИнтерфейс : Установленный внешний ASPI-интерфейс

Выходной формат : Внутренние WAV-операцииФормат сэмплов : 44.100 Гц; 16 бит; стерео

TOC извлечённого CD

Трек | Старт | Длительность | Начальный сектор | Конечный сектор --------------------------------------------------------------------- 1 | 0:00.00 | 2:08.45 | 0 | 9644 2 | 2:08.45 | 4:39.18 | 9645 | 30587 3 | 6:47.63 | 3:01.40 | 30588 | 44202 4 | 9:49.28 | 3:57.35 | 44203 | 62012 5 | 13:46.63 | 4:49.62 | 62013 | 83749 6 | 18:36.50 | 2:46.15 | 83750 | 96214 7 | 21:22.65 | 3:19.00 | 96215 | 111139 8 | 24:41.65 | 3:01.58 | 111140 | 124772 9 | 27:43.48 | 3:02.55 | 124773 | 138477 10 | 30:46.28 | 2:48.00 | 138478 | 151077 11 | 33:34.28 | 4:45.10 | 151078 | 172462 12 | 38:19.38 | 4:21.50 | 172463 | 192087 13 | 42:41.13 | 3:31.47 | 192088 | 207959 14 | 46:12.60 | 2:32.65 | 207960 | 219424 15 | 48:45.50 | 5:36.03 | 219425 | 244627 16 | 54:21.53 | 8:49.62 | 244628 | 284364

Характеристики диапазона извлечения и сообщения об ошибках

Выбранный диапазон

Имя файла K:\Forrest Gump - The Soundtrack (1994)\CD2\Various - Forrest Gump [Original Soundtrack] CD2.wav

Пиковый уровень 100.0 % Качество диапазона 99.9 % CRC копии B9D25141 Копирование... OK

Ошибок не произошло

AccurateRip: сводка

Трек 1 точное извлечение (доверие 30) [DBE03560]Трек 2 точное извлечение (доверие 31) [EFD9C7B1]Трек 3 точное извлечение (доверие 31) [7788B989]Трек 4 точное извлечение (доверие 31) [FC5C148E]Трек 5 точное извлечение (доверие 30) [1666F727]Трек 6 точное извлечение (доверие 30) [13C6A640]Трек 7 точное извлечение (доверие 31) [7F1C8161]Трек 8 точное извлечение (доверие 31) [BB10A7B1]Трек 9 точное извлечение (доверие 31) [0A609F59]Трек 10 точное извлечение (доверие 30) [0D8B1F3F]Трек 11 точное извлечение (доверие 31) [6783C946]Трек 12 точное извлечение (доверие 31) [601F5BF8]Трек 13 точное извлечение (доверие 31) [EAA11B64]Трек 14 точное извлечение (доверие 31) [C3585369]Трек 15 точное извлечение (доверие 30) [E428CF97]Трек 16 точное извлечение (доверие 30) [10F7CA83]

Все треки извлечены точно

Конец отчёта


Трекер:  [ 07-Июл-2011 23:13 ]

  

Скачать .torrent

Размер .torrent файла 16 KB


Размер: 770 MB
Хэш (hash) релиза: a542021eedce8f18979c53e5d49ecc52ee665d67

Еще никто не оставлял запись к записи скачать торрент Forrest Gump - The Soundtrack - 1994 . Будь первым!

!Обратная связь