Скачать через торрент музыку [Soundtrack] Alan Menken - The Little Mermaid Русалочка бесплатно без регистрации torrent

Если у вас наблюдаются проблемы со скриншотами, переходом по ссылками, скачиванием торрентов - проблемы в блокировщике рекламы AdBlock. #хорошегоДня!


Статистика раздачи
Размер:  215 MB   |    Зарегистрирован:  6 лет 2 месяца   |    .torrent скачан:  49 раз   |   
Раздают:  1  
   
Загрузка...
 
Автор Сообщение

Galfimbul

avatar Galfimbul


Alan Menken
Genre: Children's, Stage & Screen
Release Info: 1989, Walt Disney Records, United States
Rip: Lossless, FLAC, Tracks + Cue [Noncompilant]


01 Fathoms Below (1:41)
02 Main Titles (1:26)
03 Fanfare (0:30)
04 Daughters Of Triton (0:40)
05 Part Of Your World (3:15)
06 Under The Sea (3:15)
07 Part Of Your World (Reprise) (2:18)
08 Poor Unfortunate Souls (4:51)
09 Les Poissons (1:36)
10 Kiss The Girl (2:43)
11 Fireworks (0:37)
12 Jig (1:35)
13 The Storm (3:20)
14 Destruction Of The Grotto (1:55)
15 Flotsam And Jetsam (1:25)
16 Tour Of The Kingdom (1:27)
17 Bedtime (1:23)
18 Wedding Announcement (2:19)
19 Eric To The Rescue (3:43)
20 Happy Ending (3:12)
 
Exact Audio Copy V0.99 prebeta 4 from 23. January 2008

EAC extraction logfile from 7. April 2009, 23:59

The Little Mermaid / The Little Mermaid

Used drive : CyberDrvCW078D CD-R/RW Adapter: 1 ID: 0

Read mode : SecureUtilize accurate stream : YesDefeat audio cache : YesMake use of C2 pointers : No

Read offset correction : 733Overread into Lead-In and Lead-Out : NoFill up missing offset samples with silence : YesDelete leading and trailing silent blocks : NoNull samples used in CRC calculations : YesUsed interface : Native Win32 interface for Win NT & 2000Gap handling : Appended to previous track

Used output format : User Defined EncoderSelected bitrate : 768 kBit/sQuality : HighAdd ID3 tag : NoCommand line compressor : C:\Program Files\Exact Audio Copy\Syrup\tools\flac.exeAdditional command line options : -V -8 -T "artist=%a" -T "title=%t" -T "album=%g" -T "date=%y" -T "tracknumber=%n" -T "genre=%m" %s

TOC of the extracted CD

Track | Start | Length | Start sector | End sector --------------------------------------------------------- 1 | 0:00.33 | 1:41.55 | 33 | 7662 2 | 1:42.13 | 1:26.15 | 7663 | 14127 3 | 3:08.28 | 0:30.25 | 14128 | 16402 4 | 3:38.53 | 0:40.52 | 16403 | 19454 5 | 4:19.30 | 3:15.58 | 19455 | 34137 6 | 7:35.13 | 3:15.35 | 34138 | 48797 7 | 10:50.48 | 2:18.10 | 48798 | 59157 8 | 13:08.58 | 4:51.70 | 59158 | 81052 9 | 18:00.53 | 1:36.05 | 81053 | 88257 10 | 19:36.58 | 2:43.47 | 88258 | 100529 11 | 22:20.30 | 0:38.00 | 100530 | 103379 12 | 22:58.30 | 1:34.65 | 103380 | 110494 13 | 24:33.20 | 3:20.43 | 110495 | 125537 14 | 27:53.63 | 1:55.05 | 125538 | 134167 15 | 29:48.68 | 1:25.32 | 134168 | 140574 16 | 31:14.25 | 1:27.35 | 140575 | 147134 17 | 32:41.60 | 1:23.08 | 147135 | 153367 18 | 34:04.68 | 2:19.20 | 153368 | 163812 19 | 36:24.13 | 3:43.22 | 163813 | 180559 20 | 40:07.35 | 3:11.25 | 180560 | 194909

Track 1

Filename C:\tmp\The_Little_Mermaid_-_The_Little_Mermaid_-_01_-_Fathoms_Below.wav

Pre-gap length 0:00:02.44

Peak level 98.0 % Track quality 100.0 % Test CRC FEE52694 Copy CRC FEE52694 Cannot be verified as accurate (confidence 4) [13D584F7], AccurateRip returned [78E337F4] Copy OK

Track 2

Filename C:\tmp\The_Little_Mermaid_-_The_Little_Mermaid_-_02_-_Main_Titles.wav

Pre-gap length 0:00:00.04

Peak level 82.7 % Track quality 100.0 % Test CRC 88923CE6 Copy CRC 88923CE6 Cannot be verified as accurate (confidence 4) [F6DB28EF], AccurateRip returned [2F52F43B] Copy OK

Track 3

Filename C:\tmp\The_Little_Mermaid_-_The_Little_Mermaid_-_03_-_Fanfare.wav

Pre-gap length 0:00:00.04

Peak level 98.4 % Track quality 100.0 % Test CRC BB6AA1F8 Copy CRC BB6AA1F8 Cannot be verified as accurate (confidence 4) [0D93C722], AccurateRip returned [BCA19092] Copy OK

Track 4

Filename C:\tmp\The_Little_Mermaid_-_The_Little_Mermaid_-_04_-_Daughters_of_Triton.wav

Pre-gap length 0:00:02.65

Peak level 91.8 % Track quality 100.0 % Test CRC 33431C54 Copy CRC 33431C54 Cannot be verified as accurate (confidence 4) [3B662394], AccurateRip returned [FF861C3C] Copy OK

Track 5

Filename C:\tmp\The_Little_Mermaid_-_The_Little_Mermaid_-_05_-_Part_of_Your_World.wav

Pre-gap length 0:00:02.62

Peak level 95.3 % Track quality 100.0 % Test CRC 83251D89 Copy CRC 83251D89 Cannot be verified as accurate (confidence 4) [17A483CD], AccurateRip returned [53405E9B] Copy OK

Track 6

Filename C:\tmp\The_Little_Mermaid_-_The_Little_Mermaid_-_06_-_Under_the_Sea.wav

Pre-gap length 0:00:02.64

Peak level 91.0 % Track quality 100.0 % Test CRC 5D844F45 Copy CRC 5D844F45 Cannot be verified as accurate (confidence 4) [5596D837], AccurateRip returned [E03953ED] Copy OK

Track 7

Filename C:\tmp\The_Little_Mermaid_-_The_Little_Mermaid_-_07_-_Part_of_Your_World_(Reprise).wav

Pre-gap length 0:00:02.64

Peak level 94.9 % Track quality 99.9 % Test CRC 04561112 Copy CRC 04561112 Cannot be verified as accurate (confidence 4) [05D834D1], AccurateRip returned [03F2D224] Copy OK

Track 8

Filename C:\tmp\The_Little_Mermaid_-_The_Little_Mermaid_-_08_-_Poor_Unfortunate_Souls.wav

Pre-gap length 0:00:02.64

Peak level 86.4 % Track quality 100.0 % Test CRC 15AA36FA Copy CRC 15AA36FA Cannot be verified as accurate (confidence 4) [8795E908], AccurateRip returned [03B71EE7] Copy OK

Track 9

Filename C:\tmp\The_Little_Mermaid_-_The_Little_Mermaid_-_09_-_Les_Poissons.wav

Pre-gap length 0:00:02.60

Peak level 78.3 % Track quality 100.0 % Test CRC D92AD3B1 Copy CRC D92AD3B1 Cannot be verified as accurate (confidence 4) [553ABE5A], AccurateRip returned [C7597D2E] Copy OK

Track 10

Filename C:\tmp\The_Little_Mermaid_-_The_Little_Mermaid_-_10_-_Kiss_the_Girl.wav

Pre-gap length 0:00:02.64

Peak level 94.3 % Track quality 100.0 % Test CRC ECCD0511 Copy CRC ECCD0511 Cannot be verified as accurate (confidence 4) [8706E2AB], AccurateRip returned [3E9199E8] Copy OK

Track 11

Filename C:\tmp\The_Little_Mermaid_-_The_Little_Mermaid_-_11_-_Fireworks.wav

Pre-gap length 0:00:02.60

Peak level 72.1 % Track quality 100.0 % Test CRC CEAB6BEB Copy CRC CEAB6BEB Cannot be verified as accurate (confidence 4) [1C5C3383], AccurateRip returned [0716ED85] Copy OK

Track 12

Filename C:\tmp\The_Little_Mermaid_-_The_Little_Mermaid_-_12_-_Jig.wav

Pre-gap length 0:00:00.02

Peak level 89.7 % Track quality 100.0 % Test CRC E58B3134 Copy CRC E58B3134 Cannot be verified as accurate (confidence 4) [E7C72423], AccurateRip returned [59641FA8] Copy OK

Track 13

Filename C:\tmp\The_Little_Mermaid_-_The_Little_Mermaid_-_13_-_The_Storm.wav

Pre-gap length 0:00:02.60

Peak level 95.0 % Track quality 99.9 % Test CRC 26EA7204 Copy CRC 26EA7204 Cannot be verified as accurate (confidence 4) [BFE5A5FA], AccurateRip returned [56FC854F] Copy OK

Track 14

Filename C:\tmp\The_Little_Mermaid_-_The_Little_Mermaid_-_14_-_Destruction_of_the_Grotto.wav

Pre-gap length 0:00:02.64

Peak level 87.3 % Track quality 100.0 % Test CRC EAC9D9AA Copy CRC EAC9D9AA Cannot be verified as accurate (confidence 4) [C1E62B97], AccurateRip returned [9A6D0266] Copy OK

Track 15

Filename C:\tmp\The_Little_Mermaid_-_The_Little_Mermaid_-_15_-_Flotsam_and_Jetsam.wav

Pre-gap length 0:00:02.64

Peak level 100.0 % Track quality 100.0 % Test CRC AAD3F4A4 Copy CRC AAD3F4A4 Cannot be verified as accurate (confidence 4) [F0BD8577], AccurateRip returned [CFE18E5D] Copy OK

Track 16

Filename C:\tmp\The_Little_Mermaid_-_The_Little_Mermaid_-_16_-_Tour_of_the_Kingdom.wav

Pre-gap length 0:00:02.62

Peak level 99.1 % Track quality 100.0 % Test CRC 3157845E Copy CRC 3157845E Cannot be verified as accurate (confidence 4) [1AC118AB], AccurateRip returned [A278AF6F] Copy OK

Track 17

Filename C:\tmp\The_Little_Mermaid_-_The_Little_Mermaid_-_17_-_Bedtime.wav

Pre-gap length 0:00:02.62

Peak level 57.9 % Track quality 100.0 % Test CRC A9CA9CFF Copy CRC A9CA9CFF Cannot be verified as accurate (confidence 4) [994151FF], AccurateRip returned [C6BDB6D7] Copy OK

Track 18

Filename C:\tmp\The_Little_Mermaid_-_The_Little_Mermaid_-_18_-_Wedding_Announcement.wav

Pre-gap length 0:00:02.36

Peak level 99.0 % Track quality 100.0 % Test CRC 1C556A76 Copy CRC 1C556A76 Cannot be verified as accurate (confidence 4) [B7219766], AccurateRip returned [509B01AE] Copy OK

Track 19

Filename C:\tmp\The_Little_Mermaid_-_The_Little_Mermaid_-_19_-_Eric_to_the_Rescue.wav

Pre-gap length 0:00:02.60

Peak level 99.5 % Track quality 100.0 % Test CRC 4B643E8E Copy CRC 4B643E8E Cannot be verified as accurate (confidence 4) [B39012EE], AccurateRip returned [524F4B8A] Copy OK

Track 20

Filename C:\tmp\The_Little_Mermaid_-_The_Little_Mermaid_-_20_-_Happy_Ending.wav

Pre-gap length 0:00:02.60

Peak level 84.7 % Track quality 100.0 % Test CRC EE1ECFF9 Copy CRC EE1ECFF9 Cannot be verified as accurate (confidence 4) [D82468C5], AccurateRip returned [22FE2579] Copy OK

No tracks could be verified as accurateYou may have a different pressing from the one(s) in the database

No errors occurred

End of status report


Трекер:  [ 07-Июл-2011 23:14 ]

  

Скачать .torrent

Размер .torrent файла 19 KB


Размер: 215 MB
Хэш (hash) релиза: 6ff5a65e7ee4dcec407e5d0e232db197e926ea96

Еще никто не оставлял запись к записи скачать торрент [Soundtrack] Alan Menken - The Little Mermaid Русалочка . Будь первым!

!Обратная связь